<?xml version="1.0" standalone="no"?>
<!DOCTYPE svg PUBLIC "-//W3C//DTD SVG 1.1//EN" "http://www.w3.org/Graphics/SVG/1.1/DTD/svg11.dtd">
<svg xmlns="http://www.w3.org/2000/svg">
<defs >
<font id="Alegreya" horiz-adv-x="549" ><font-face
    font-family="Alegreya"
    units-per-em="1000"
    panose-1="0 0 0 0 0 0 0 0 0 0"
    ascent="1016"
    descent="-345"
    alphabetic="0" />
<glyph unicode=" " horiz-adv-x="198" />
<glyph unicode="!" horiz-adv-x="285" d="M117 202L106 210L98 666L105 676L188 694L197 683L145 209L117 202ZM117 -12Q89 -12 75 5T61 45Q61 71 78 89T123 107Q151 107 165 90T180 50Q180 25 163 7T117 -12Z" />
<glyph unicode="&quot;" horiz-adv-x="298" d="M71 415L60 417Q62 472 61 522T57 603T54 635L124 649L131 641Q131 641 127 610T115 529T96 429L71 415ZM193 415L182 417Q184 472 183 522T179 603T176 635L246 649L253 641Q253 641 249 610T237 529T218 429L193 415Z" />
<glyph unicode="#" horiz-adv-x="498" d="M95 35L88 41L125 209L14 208L11 218L26 255L135 254L148 311L160 363L51 362L48 372L63 409L170 408L207 568L247 573L255 567L216 407H269L322 406L359 568L399 573L407 567L368 406H476L480 397L461 361L357 362L348
323L332 252H439L443 243L424 207L322 208L286 43L247 35L240 41L277 209L207 210L171 209L134 43L95 35ZM287 252L300 311L312 363L244 364L206 363L196 323L180 253H232L287 252Z" />
<glyph unicode="$" horiz-adv-x="459" d="M191 19L234 484H266L222 19H191ZM180 -154L175 -147L191 19H222L206 -151L180 -154ZM234 484L250 654L276 658L282 649L266 484H234ZM191 -9Q152 -9 122 -2T75 11T58 18L53 27Q53 27 56 46T61 95T64 162L109 166Q109
114 117 87T147 49T211 39Q259 39 288 60T318 116Q318 141 300 158T254 191T195 221Q162 237 132 255T82 299T62 359Q62 402 87 435T157 487T258 507Q296 507 325 502T370 493T387 488L391 481Q391 481 388 463T380 415T372 349L333 345L327 349Q327 349 328 359T329
385Q329 424 309 439T236 455Q194 455 167 436T139 386Q139 353 173 331T250 287Q285 271 319 252T377 207T400 144Q400 99 374 65T300 11T191 -9Z" />
<glyph unicode="%" horiz-adv-x="671" d="M509 -12Q445 -12 410 32T374 144Q374 192 393 229T446 289T525 311Q572 311 601 289T645 233T659 162Q659 116 642 77T591 13T509 -12ZM170 326Q106 326 71 370T35 482Q35 530 54 567T107 627T186 649Q233 649 262 627T306
571T320 500Q320 455 303 415T252 351T170 326ZM184 390Q202 390 223 397T258 422T273 477Q273 521 246 552T169 583Q129 583 106 559T82 496Q82 458 97 435T136 401T184 390ZM523 52Q541 52 562 59T597 84T612 139Q612 183 585 214T508 245Q468 245 445 221T421
158Q421 120 436 97T475 63T523 52ZM115 -95L77 -76L72 -64Q72 -64 86 -43T123 15T176 95T235 186T292 275L548 678L587 659L592 645Q592 645 574 618T525 545T460 447T391 340T330 245Q303 202 274 155T216 63T165 -17T129 -74T115 -95Z" />
<glyph unicode="&amp;" horiz-adv-x="700" d="M595 -28Q591 -28 559 -1T468 78Q426 36 373 12T269 -12Q204 -12 156 9T81 68T55 160Q55 203 75 234T121 286T167 316T187 326V333Q145 377 125 415T105 490Q105 536 131 571T202 628T304 649Q359 649 392 638T425
626L427 611L379 537Q377 537 374 537T369 536Q333 569 312 579T263 590Q223 590 199 570T175 514Q175 481 188 452T234 387T326 301L486 163Q504 199 504 249Q504 309 486 338T426 367Q413 367 400 365T378 360T369 358L355 401Q355 401 369 409T408 419L614 431Q661
435 675 437T691 442L701 418L688 387Q681 374 669 371T618 367H518L515 361Q535 343 546 318T557 263Q557 232 547 200T517 137L657 19V3Q657 3 645 -4T618 -20T595 -28ZM297 51Q338 51 375 64T441 102L216 303Q177 285 154 252T130 180Q130 122 175 87T297 51Z"
/>
<glyph unicode="&apos;" horiz-adv-x="176" d="M71 415L60 417Q62 472 61 522T57 603T54 635L124 649L131 641Q131 641 127 610T115 529T96 429L71 415Z" />
<glyph unicode="(" horiz-adv-x="275" d="M242 -146Q242 -146 224 -137T178 -107T122 -51T76 37T57 163V336Q57 410 76 463T123 552T179 609T226 640T245 649H249L262 620L261 616Q261 616 247 608T213 582T173 534T138 458T124 351V178Q124 111 138 62T174 -21T216
-76T252 -106T267 -115V-120L246 -146H242Z" />
<glyph unicode=")" horiz-adv-x="274" d="M25 -146L12 -117L13 -113Q13 -113 27 -105T61 -79T101 -31T136 45T150 152V325Q150 392 136 441T100 524T58 579T22 609T7 618V623L28 649H32Q32 649 50 640T97 610T152 554T198 466T217 340V167Q217 94 198 41T151 -49T95
-106T48 -137T29 -146H25Z" />
<glyph unicode="*" horiz-adv-x="456" d="M154 434Q154 434 144 438T120 448T92 464L91 473Q91 473 104 485T138 515T182 549L211 533L214 526Q198 505 185 484T163 448T154 434ZM174 565Q149 574 125 580T84 590T68 594Q68 594 68 605T71 631T77 662L86 666Q86
666 101 658T140 635T186 603L180 570L174 565ZM285 417L276 418Q276 418 269 434T251 476T232 528L256 551L264 552Q280 530 295 511T321 479T332 466Q332 466 326 458T309 438T285 417ZM205 611L199 615Q199 642 198 667T196 709T194 725Q194 725 204 728T230
734T261 737L268 730Q268 730 265 713T255 669T239 616L205 611ZM267 570L253 599L254 607Q280 615 303 624T342 639T357 646Q357 646 363 637T376 615T389 586L385 577Q385 577 367 575T322 571T267 570Z" />
<glyph unicode="+" horiz-adv-x="506" d="M230 30L221 36Q221 36 221 54T221 102T222 167T222 235Q189 235 155 235T90 235T42 234T24 234L18 243L29 292Q29 292 59 292T134 292T222 291L223 492L274 500L284 494Q284 494 283 474T281 423T279 356T278 291Q308
291 343 292T410 294T462 296T482 297L488 287L480 236L278 235Q278 191 278 146T279 71T279 41L230 30Z" />
<glyph unicode="," horiz-adv-x="294" d="M81 -157L63 -142V-132Q97 -109 119 -76T142 -11Q142 10 133 28T110 59L112 73Q122 81 138 90T170 99Q191 99 206 79T221 21Q221 -17 199 -51T144 -112T81 -157Z" />
<glyph unicode="-" horiz-adv-x="380" d="M71 210L64 218L70 270L244 290Q279 294 294 296T309 299L316 290L311 236L71 210Z" />
<glyph unicode="." horiz-adv-x="305" d="M149 -12Q121 -12 107 5T93 45Q93 71 110 89T155 107Q183 107 197 90T212 50Q212 25 195 7T149 -12Z" />
<glyph unicode="/" horiz-adv-x="329" d="M41 -110L34 -102Q34 -102 42 -73T65 5T95 111T126 226L241 675H287L295 665Q295 665 287 635T265 554T235 443T202 324T173 215Q157 153 142 95T115 -9T96 -83T89 -110H41Z" />
<glyph unicode="0" horiz-adv-x="533" d="M253 -12Q189 -12 141 19T65 105T38 235Q38 313 69 374T156 470T281 505Q344 505 392 475T468 390T495 263Q495 184 464 122T378 24T253 -12ZM271 64Q346 64 392 111T439 235Q439 291 416 333T353 400T260 424Q185 424
140 377T94 250Q94 195 116 153T179 88T271 64Z" />
<glyph unicode="1" horiz-adv-x="342" d="M49 -12L55 34Q92 37 111 47T138 80T145 148V376Q145 414 131 423T91 433Q75 433 57 430T38 427L35 430L39 472Q39 472 56 474T98 479T149 487Q199 495 219 499T244 504T250 505L256 488Q237 472 229 456T219 404Q217
351 216 293T214 187T213 112Q213 72 223 58T262 44Q280 44 297 45T315 47L317 43L308 -3Q308 -3 295 -3T260 -2T216 -1T175 0Q156 0 134 -2T93 -6T62 -10T49 -12Z" />
<glyph unicode="2" horiz-adv-x="475" d="M27 6L106 94Q162 158 198 208T251 296T269 362Q269 398 249 418T194 438Q160 438 127 414T71 349H62L51 394Q68 426 95 451T155 490T220 505Q282 505 319 472T357 385Q357 355 338 317T272 219T144 68L148 61H301Q338
61 358 68T391 94T413 152L453 157Q453 157 450 143T442 106T432 55T424 0L412 -7Q412 -7 388 -7T324 -5T241 -2T157 -1T91 0L37 -12L27 6Z" />
<glyph unicode="3" horiz-adv-x="416" d="M87 -105Q53 -105 39 -88T23 -32L28 -26Q70 -35 108 -35Q158 -35 198 -18T261 30T285 98Q285 149 242 173T106 199L101 204L96 239L161 255Q201 274 226 306T252 372Q252 404 230 423T174 442Q146 442 115 428T60 391Q58
391 55 391T50 391L40 433Q40 433 55 444T94 469T148 494T205 505Q264 505 299 475T335 393Q335 353 305 315T225 251V246Q293 230 326 199T360 122Q360 82 336 42T272 -31T183 -85T87 -105Z" />
<glyph unicode="4" horiz-adv-x="453" d="M260 -105L254 -96Q254 -96 255 -79T257 -35T259 24T260 85Q202 87 137 88T13 89Q14 98 15 107T17 126L293 504Q294 504 295 504T297 505L329 495V143H422L428 135L420 80Q420 80 395 81T329 83Q330 43 331 4T334 -60T336
-86L331 -93L260 -105ZM90 143H260V367H251L90 143Z" />
<glyph unicode="5" horiz-adv-x="430" d="M79 -105Q51 -105 35 -91T16 -32L21 -26Q42 -30 62 -32T102 -35Q155 -35 197 -18T263 29T288 98Q288 131 269 154T204 194T79 224L70 235Q74 279 77 322T82 401T86 458T87 479L95 487L284 495Q313 497 326 504T347 534L380
538L356 420L350 414Q350 414 320 416T239 420T131 422L124 296Q191 281 245 260T332 208T364 128Q364 82 337 41T267 -34T174 -86T79 -105Z" />
<glyph unicode="6" horiz-adv-x="462" d="M230 -12Q177 -12 137 14T73 88T50 197Q50 263 72 323T138 436T242 529T382 598L389 593L400 563Q271 508 201 415T130 203Q130 126 162 81T250 36Q299 36 327 68T355 156Q355 192 339 221T295 267T234 285Q208 285 177
273T124 241L131 299L145 292Q183 316 213 330T256 344Q305 344 344 323T406 264T429 180Q429 125 403 82T332 14T230 -12Z" />
<glyph unicode="7" horiz-adv-x="420" d="M162 -105L102 -87L92 -65L342 425L169 418Q135 417 118 409T92 381T77 325L38 319Q38 319 40 335T45 377T52 433T57 492L63 497Q63 497 80 496T126 494T185 493H396L418 465Q375 378 340 304T278 170T230 62T194 -19L169
-105H162Z" />
<glyph unicode="8" horiz-adv-x="485" d="M227 -12Q182 -12 143 3T80 49T56 124Q56 171 79 204T132 258T185 289Q141 313 108 346T74 435Q74 477 97 514T160 575T254 598Q293 598 328 584T387 539T410 464Q410 426 394 398T355 350T311 319Q343 302 370 281T414
233T431 166Q431 117 404 77T331 12T227 -12ZM251 31Q295 31 328 61T362 137Q362 171 342 194T289 235T220 271Q204 264 183 250T145 211T129 148Q129 118 144 91T188 48T251 31ZM275 337Q295 349 315 374T335 443Q335 496 307 524T237 552Q194 552 169 526T144
465Q144 434 163 412T212 373T275 337Z" />
<glyph unicode="9" horiz-adv-x="455" d="M82 -105L75 -100L64 -70Q193 -15 263 78T334 290Q334 367 302 412T214 457Q165 457 137 425T109 337Q109 302 125 273T169 226T230 208Q256 208 287 220T340 252L333 194L319 201Q281 177 251 163T208 149Q159 149 120
170T58 229T35 313Q35 368 61 411T132 479T234 505Q287 505 327 479T391 405T414 296Q414 230 392 170T326 57T222 -36T82 -105Z" />
<glyph unicode=":" horiz-adv-x="238" d="M401 -12Q373 -12 359 5T345 45Q345 71 362 89T407 107Q435 107 449 90T464 50Q464 25 447 7T401 -12ZM145 268Q117 268 103 285T89 325Q89 351 106 369T151 387Q179 387 193 370T208 330Q208 305 191 287T145 268Z" />
<glyph unicode=";" horiz-adv-x="238" d="M81 -157L63 -142V-132Q97 -109 119 -76T142 -11Q142 10 133 28T110 59L112 73Q122 81 138 90T170 99Q191 99 206 79T221 21Q221 -17 199 -51T144 -112T81 -157ZM145 268Q117 268 103 285T89 325Q89 351 106 369T151 387Q179
387 193 370T208 330Q208 305 191 287T145 268Z" />
<glyph unicode="&lt;" horiz-adv-x="506" d="M425 70Q425 70 408 78T362 99T301 127T237 155Q210 167 176 181T111 209T59 230T39 239L31 250L33 297L236 383Q270 398 305 412T370 438T418 457T437 464L446 459L453 409Q453 409 435 403T387 386T324 362T259 336L105
276V270L273 200Q314 182 356 164T426 134T454 121L455 110L425 70Z" />
<glyph unicode="=" horiz-adv-x="506" d="M24 314L18 323L29 372Q29 372 53 372T115 372T194 371T268 371Q298 371 334 372T405 374T460 376T482 377L488 367L480 316L253 315Q219 315 180 315T105 315T47 314T24 314ZM24 157L18 166L29 215Q29 215 53 215T115
215T194 214T268 214Q298 214 334 215T405 217T460 219T482 220L488 210L480 159L253 158Q219 158 180 158T105 158T47 157T24 157Z" />
<glyph unicode="&gt;" horiz-adv-x="506" d="M69 70L60 75L53 125Q53 125 71 131T119 148T182 172T247 198L401 258V264L233 334Q192 352 150 370T80 401T52 413L51 424L81 464Q81 464 98 456T144 435T205 407T269 379Q296 367 330 353T395 325T447 304T467 295L475
284L473 237L270 151Q236 136 201 122T136 96T88 77T69 70Z" />
<glyph unicode="?" horiz-adv-x="360" d="M117 199L108 203L84 323L87 337L206 413Q229 429 246 450T263 499Q263 560 207 590T60 626L58 637L91 690L105 694Q167 692 217 670T298 612T329 529Q329 487 314 458T274 407T220 367T163 328L160 319L181 224L178 216L117
199ZM143 -12Q115 -12 101 5T87 45Q87 71 104 89T149 107Q177 107 191 90T206 50Q206 25 189 7T143 -12Z" />
<glyph unicode="@" horiz-adv-x="832" d="M431 -209Q333 -204 259 -172T134 -84T59 40T33 188Q33 253 52 315T108 432T197 526T315 590T460 613Q561 613 637 572T756 461T799 304Q799 243 779 187T718 85T617 14T477 -12Q459 -12 450 -5T441 17Q441 23 445 45T456
98T469 157T479 205T484 225L478 227Q429 133 383 77T291 -12Q251 -12 231 26T211 124Q211 188 231 248T285 356T359 432T440 460L540 444L549 469L554 470L585 455L593 443Q593 443 587 421T571 361T550 274T528 169T509 58L513 54Q586 54 634 82T706 162T730
280Q730 368 693 430T590 524T435 557Q359 557 298 529T194 452T127 340T104 206Q104 109 141 27T256 -107T457 -166Q457 -167 457 -169T457 -173L431 -209ZM310 69Q328 69 360 108T432 215T510 373Q504 377 488 385T451 399T409 406Q378 406 349 374T300 288T281
173Q281 132 289 101T310 69Z" />
<glyph unicode="A" horiz-adv-x="584" d="M332 -10L329 -3L333 36Q368 39 387 43T414 54T422 74Q422 84 420 96T413 122L380 231Q362 232 330 232T276 232Q247 232 216 229T167 224L130 120Q121 93 121 81Q121 59 135 50T181 40H238L240 36L234 -7Q234 -7 213
-5T160 -2T95 0Q71 0 46 0T3 -2T-15 -3L-7 44Q21 47 38 63T71 121L266 632L329 649H337Q337 649 343 626T361 561T388 466T421 352T458 231T496 113Q508 76 528 61T592 42L594 38L587 -3Q587 -3 568 -2T523 -1T481 0Q443 0 409 -2T353 -7T332 -10ZM185 273H273Q293
273 321 275T366 278L287 540H280L185 273Z" />
<glyph unicode="B" horiz-adv-x="597" d="M172 0Q153 0 133 -2T96 -6T69 -10T58 -12L64 34Q111 43 126 60T142 120L143 540Q143 572 136 583T106 594Q97 594 85 593T72 592L70 596L77 640Q77 640 88 640T118 639T155 638T188 637Q199 637 214 637T245 638T275
639T297 640T306 641Q401 641 452 602T503 489Q503 440 473 400T387 335Q436 325 470 303T523 251T542 183Q542 131 510 87T424 17T307 -10Q291 -10 275 -9T242 -5T209 -2T172 0ZM217 298L213 111Q213 73 239 57T327 41Q387 41 421 74T456 165Q456 276 321 300L217
298ZM219 351Q219 351 233 350T268 347T305 344T328 343Q328 343 342 348T375 367T408 406T422 472Q422 537 379 567T246 598Q236 598 233 594T228 575Q226 543 225 507T222 432T219 351Z" />
<glyph unicode="C" horiz-adv-x="626" d="M339 -12Q248 -12 181 26T77 133T40 297Q40 373 66 437T139 549T249 623T389 649Q420 649 451 646T507 637T547 629T563 625L567 619Q567 619 562 597T551 536T542 452L494 448Q494 448 495 464T497 497Q497 544 461 567T350
590Q283 590 234 558T157 468T130 330Q130 242 158 177T238 75T359 38Q427 38 468 76T529 196L577 200Q577 200 574 185T567 146T558 93T550 37L544 28Q544 28 518 18T445 -2T339 -12Z" />
<glyph unicode="D" horiz-adv-x="703" d="M317 -12Q317 -12 302 -10T264 -6T217 -2T173 0Q148 0 122 -3T77 -9T58 -12L64 34Q111 43 126 60T142 120L143 540Q143 572 136 583T106 594Q97 594 85 593T72 592L70 596L77 640Q77 640 88 640T115 639T150 638T182 637Q199
637 224 637T275 639T317 640T334 641Q432 641 506 604T621 499T663 342Q663 267 637 203T563 91T453 15T317 -12ZM265 592Q244 592 237 588T229 570Q222 397 218 281T214 131Q214 95 224 75T262 47T340 39Q448 39 510 113T572 318Q572 406 537 467T433 560T265
592Z" />
<glyph unicode="E" horiz-adv-x="591" d="M58 -10L64 36Q109 42 125 59T142 120L143 540Q143 572 136 583T106 594Q100 594 90 594T72 592L70 596L77 640Q94 640 118 639T168 638T216 637Q296 637 350 638T444 642T516 649L519 643Q514 619 509 590T501 531T496
477L448 473Q449 482 449 495T450 516Q450 540 446 554T427 576T381 585T297 587Q265 587 250 585T232 575T227 548L217 315L213 105Q213 78 218 66T239 49T292 45Q351 45 387 49T442 65T470 101T485 167L529 172L532 167Q525 136 518 88T505 -1L500 -7Q440 -5
381 -4T273 -1T197 0Q166 0 127 -2T58 -10ZM203 294L212 354Q219 354 239 354T282 354T322 353Q339 353 374 356T444 364L448 359L434 300Q406 301 365 302T294 303Q275 303 250 301T203 294Z" />
<glyph unicode="F" horiz-adv-x="512" d="M58 -12L64 34Q111 43 126 60T142 120L143 540Q143 572 136 583T106 594Q97 594 85 593T72 592L70 596L77 640Q77 640 90 640T124 639T169 638T216 637Q285 637 336 638T426 642T497 649L500 643Q500 643 496 620T486
559T477 474L429 470Q429 470 430 488T431 516Q431 549 423 564T387 583T297 587Q265 587 250 585T232 575T227 548L219 337L322 336Q338 336 362 339T407 344T427 347L431 342L417 282Q417 282 396 283T347 284T294 285Q272 285 251 283T217 278L213 112Q213 72
222 58T257 44Q267 44 284 45T314 46T328 47L330 43L321 -4Q321 -4 306 -4T267 -2T218 -1T172 0Q147 0 121 -3T76 -9T58 -12Z" />
<glyph unicode="G" horiz-adv-x="667" d="M332 -12Q243 -12 178 26T76 133T40 297Q40 402 84 481T207 604T391 649Q422 649 456 646T519 637T566 629T585 625L589 619Q589 619 584 597T573 536T563 452L516 448Q516 448 517 465T519 502Q519 549 484 569T368 590Q292
590 238 560T156 471T127 329Q127 241 155 176T235 74T355 38Q395 38 426 47T474 66T492 76V198Q492 232 482 242T437 252Q426 252 410 252T381 252T368 252L366 256L375 306Q375 306 394 305T443 303T502 302Q524 302 543 303T575 306T588 307L592 285Q580 275
574 258T564 211T561 131Q561 105 563 81T568 43L562 34Q562 34 531 23T448 0T332 -12Z" />
<glyph unicode="H" horiz-adv-x="754" d="M58 -12L64 34Q111 43 126 60T142 120L143 540Q143 572 136 583T106 594Q100 594 90 594T72 592L70 596L77 640Q100 639 133 638T188 637Q207 637 237 639T295 646L291 601Q263 597 250 590T232 565T225 511L219 349L387
348Q420 348 452 350T535 358L536 540Q536 572 529 583T499 594Q492 594 483 594T465 592L463 596L470 640Q470 640 488 639T529 638T568 637Q590 637 624 639T688 646L684 601Q647 596 635 585T620 544Q617 486 615 423T610 299T607 188T606 106Q606 69 615 57T650
44Q661 44 674 45T695 47L697 43L688 -3Q663 -2 626 -1T565 0Q553 0 533 0T490 -1T450 -2L459 43Q491 44 507 52T529 83T535 150V301Q512 301 483 301T427 302T383 302Q373 302 347 301T286 297T217 291L213 112Q213 72 222 58T257 44Q268 44 281 45T302 47L304
43L295 -3Q295 -2 280 -2T245 -1T210 0Q180 0 145 -2T84 -6T58 -12Z" />
<glyph unicode="I" horiz-adv-x="361" d="M56 -12L62 34Q109 43 125 60T142 120L143 540Q143 572 136 583T106 594Q99 594 87 594T64 592L62 596L69 640Q95 639 130 638T188 637Q209 637 241 639T303 646L299 601Q258 596 244 585T227 544Q224 489 222 427T217
305T214 194T213 112Q213 72 222 58T257 44Q271 44 286 45T310 47L312 43L303 -3Q285 -2 261 -2T213 -1T172 0Q150 0 118 -3T56 -12Z" />
<glyph unicode="J" horiz-adv-x="327" d="M40 -144L23 -111L26 -103Q67 -78 89 -51T121 15T131 115L132 540Q132 572 125 582T95 593Q89 593 78 592T58 590T48 589L46 593L53 637H161Q183 637 210 639T257 643T277 646L273 601Q238 596 228 586T216 544Q215 517
214 474T210 379T207 276T204 183T203 116Q202 14 164 -47T40 -144Z" />
<glyph unicode="K" horiz-adv-x="628" d="M243 329L422 515Q453 546 453 567Q453 580 438 587T390 597L388 601L395 644Q395 644 406 643T436 641T472 638T505 637Q520 637 536 637T566 639T588 640T597 641L601 634L594 593Q577 590 562 582T528 557T479 509L318
340L486 121Q522 75 550 56T614 36L618 32L612 -2Q612 -2 601 -4T575 -8T546 -12T529 -14Q504 -14 475 9T417 72L242 315L243 329ZM143 540Q143 572 136 583T106 594Q97 594 85 593T72 592L70 596L77 640Q77 640 88 640T118 639T155 638T188 637Q204 637 222 638T257
641T284 644T295 646L291 601Q254 595 240 583T225 541L213 112Q212 72 221 58T257 44Q272 44 287 45T302 47L304 43L295 -3Q295 -3 283 -3T250 -2T210 -1T172 0Q153 0 133 0T96 0T68 -1T57 -1L67 44Q114 49 128 63T142 120L143 540Z" />
<glyph unicode="L" horiz-adv-x="507" d="M68 -10L74 36Q113 42 127 59T142 120L143 540Q143 572 136 583T106 594Q97 594 85 593T72 592L70 596L77 640Q77 640 97 639T143 638T189 637Q205 637 223 638T258 641T285 644T296 646L292 601Q259 597 246 588T231
561T226 508Q222 446 219 374T215 235T214 122Q214 88 219 72T243 50T299 45Q343 45 370 50T413 70T440 113T458 187L502 192L505 187Q505 187 500 160T489 90T476 -3L471 -9Q471 -9 443 -8T372 -5T284 -2T202 0Q165 0 135 -2T86 -7T68 -10Z" />
<glyph unicode="M" horiz-adv-x="847" d="M397 -19Q365 71 333 161T269 340T205 520H200Q200 520 198 490T191 411T182 307T173 202T167 117T164 75Q164 44 195 44Q203 44 219 44T236 45L238 41L229 -4Q229 -4 212 -3T172 -1T132 0Q117 0 102 -1T74 -4T54 -7T46
-8L51 38Q83 42 97 58T115 115Q117 133 121 169T130 252T139 347T148 438T155 510T158 547Q158 565 149 576T121 593T72 602L69 607L77 642Q77 642 97 641T144 639T186 637Q201 637 216 638T243 640T254 641Q288 532 318 441T372 284T409 182T423 145H428Q428 145
441 181T479 284T534 441T601 639Q601 640 613 639T641 638T667 637Q682 637 708 638T754 641T775 643L777 639L772 602Q729 597 711 585T693 547Q693 538 694 507T699 431T705 335T712 232T719 139Q726 81 735 63T768 44Q777 44 786 45T796 46L798 42L789 -3Q789
-3 773 -2T735 -1T694 0Q678 0 660 -1T626 -4T600 -7T590 -8L594 38Q625 42 639 54T653 88Q653 97 651 131T644 215T636 317T628 416T622 491T619 520H614Q590 454 566 388T518 254T469 121T421 -12L397 -19Z" />
<glyph unicode="N" horiz-adv-x="719" d="M570 -40Q497 74 430 174T311 349T229 468T198 511H193L188 84Q188 62 195 53T219 44Q224 44 236 44T259 45T270 45L272 41L263 -4Q263 -4 253 -4T226 -2T192 -1T157 0Q137 0 116 -2T79 -6T64 -8L69 38Q100 42 115 56T131
101L144 538Q144 569 126 582T57 600L54 605L62 642Q62 642 77 641T113 639T148 637Q165 637 180 638T205 640T215 641Q265 564 313 491T405 355T481 245T532 172T551 145H556V550Q556 572 548 582T523 593Q510 593 498 593T485 592L483 596L492 641Q492 641 502
641T527 639T558 638T587 637Q608 637 631 639T670 643T686 645L681 599Q647 595 631 580T613 536L599 -26L570 -40Z" />
<glyph unicode="O" horiz-adv-x="692" d="M317 -12Q235 -12 173 27T75 136T40 297Q40 371 65 435T135 547T240 622T369 649Q453 649 516 610T616 502T652 341Q652 266 627 202T556 90T449 15T317 -12ZM348 39Q412 39 460 72T535 163T563 299Q563 385 534 450T454
552T335 589Q273 589 226 556T153 465T126 329Q126 244 154 179T232 76T348 39Z" />
<glyph unicode="P" horiz-adv-x="551" d="M63 -8L70 38Q114 46 128 61T142 120L143 540Q143 572 136 583T106 594Q97 594 85 593T72 592L70 596L77 640Q77 640 97 639T143 638T188 637Q198 637 218 637T261 639T298 640T314 641Q366 641 405 630T472 595T514 539T528
463Q528 420 509 381T458 311T385 262T299 244H215L213 146Q213 101 216 79T228 51T257 44Q272 44 291 45T311 47L313 43L304 -3Q304 -3 295 -3T271 -2T241 -1T212 0Q192 0 167 -1T118 -3T80 -5T63 -8ZM323 288Q444 308 444 444Q444 521 399 556T256 592Q238 592
234 591T229 578Q225 511 222 440T217 303L323 288Z" />
<glyph unicode="Q" horiz-adv-x="697" d="M709 -216Q673 -216 641 -208T567 -179T466 -117T317 -12Q235 -12 173 27T75 136T40 297Q40 371 65 435T135 547T240 622T369 649Q453 649 516 610T616 502T652 341Q652 258 621 188T534 69T407 0V-5Q478 -53 532 -82T630
-124T714 -137Q749 -137 771 -132T794 -127L798 -130L804 -148Q804 -148 796 -155T776 -172T751 -192T727 -209T709 -216ZM348 39Q412 39 460 72T535 163T563 299Q563 385 534 450T454 552T335 589Q273 589 226 556T153 465T126 329Q126 244 154 179T232 76T348
39Z" />
<glyph unicode="R" horiz-adv-x="611" d="M512 -16Q487 -16 459 10T406 79L299 273H216L213 124Q213 88 217 71T237 48T285 42L287 38L278 -4Q278 -4 268 -4T243 -3T209 -2T172 -1Q147 0 121 -1T76 -3T57 -4L66 41Q113 46 127 61T142 120L143 540Q143 572 136
583T106 594Q97 594 85 593T72 592L70 596L77 640Q77 640 88 640T118 639T155 638T188 637Q201 637 221 637T262 639T297 640T311 641Q404 641 458 599T512 484Q512 424 474 374T365 292L475 118Q504 71 531 52T599 33L603 29L597 -5L512 -16ZM321 319Q321 319
337 325T375 348T412 393T429 466Q429 532 384 565T246 598Q236 598 233 594T228 575Q224 496 222 439T218 329L321 319Z" />
<glyph unicode="S" horiz-adv-x="530" d="M219 -12Q172 -12 137 -4T82 13T62 22L57 32Q57 32 59 45T63 82T67 138T69 206L114 211Q114 139 124 102T162 51T244 37Q306 37 344 66T383 147Q383 180 361 204T305 248T231 288Q191 309 154 333T92 388T68 463Q68 516
98 558T181 624T298 649Q343 649 377 643T431 631T451 624L454 618Q454 618 450 595T440 534T432 449L393 445L387 450Q387 450 388 464T390 502Q390 555 365 575T271 595Q216 595 181 568T145 499Q145 469 164 446T214 403T281 365Q325 343 367 318T438 261T466
183Q466 126 435 82T348 13T219 -12Z" />
<glyph unicode="T" horiz-adv-x="546" d="M125 -4L133 39Q180 43 201 51T227 84T233 162V598Q175 596 142 593T92 578T69 541T56 472L9 468Q13 497 16 528T21 588T24 641L33 649L116 638H426L511 649L520 641Q521 618 523 589T528 529T535 472L488 468Q481 513
474 538T451 575T404 591T319 598Q316 568 313 512T308 387T305 245T303 112Q303 75 316 60T360 44Q390 44 415 47L418 43L409 -3Q388 -2 360 -2T306 -1T262 0Q246 0 222 0T172 -2T125 -4Z" />
<glyph unicode="U" horiz-adv-x="681" d="M327 -12Q222 -12 165 45T108 209V540Q108 572 101 583T71 594Q62 594 50 593T37 592L35 596L42 640Q42 640 62 639T109 638T155 637Q171 637 189 638T224 641T250 644T260 646L256 601Q219 596 207 585T192 544L184 250Q184
151 227 98T351 45Q433 45 476 88T519 214Q519 235 519 274T517 358T515 445T514 513T513 540Q511 575 505 584T476 594Q467 594 450 593T433 592L431 596L438 640Q438 640 450 640T480 639T517 638T551 637Q573 637 595 639T632 643T648 646L644 601Q601 595 588
585T575 544V208Q575 103 510 46T327 -12Z" />
<glyph unicode="V" horiz-adv-x="610" d="M258 -17Q258 -17 251 5T232 68T203 161T167 277T127 405T85 536Q76 565 54 578T-7 593L-9 597L-2 640Q-2 640 11 640T43 639T81 638T114 637Q134 637 159 638T209 642T248 646T264 648L267 641L263 602Q228 600 209 596T182
583T174 560Q174 553 181 525T199 455T223 365T250 269T275 183T293 121T300 97H309Q322 131 339 175T375 269T411 366T443 454T466 522T475 557Q475 578 459 587T406 597H354L352 601L358 644Q358 644 380 643T435 639T501 637Q525 637 550 637T593 639T611 640L603
593Q572 592 560 583T537 545L322 5L258 -17Z" />
<glyph unicode="W" horiz-adv-x="932" d="M251 -17Q251 -17 245 5T227 68T199 162T165 277T126 405T84 536Q75 565 54 578T-6 593Q-6 594 -6 595T-7 597L-1 640Q-1 640 20 639T69 638T112 637Q148 637 181 640T235 645T257 648L260 641L256 602Q222 600 204 596T178
583T170 561Q170 553 176 524T194 452T218 362T245 267T269 182T286 120T293 97H299Q313 135 327 173T355 250T384 327T412 404T440 481Q436 495 432 509T422 536Q412 566 391 579T332 593L330 597L337 640Q337 640 349 640T381 639T419 638T450 637Q480 637 514
640T571 645T595 648L598 641L594 602Q560 600 541 596T515 583T507 560Q507 553 513 525T531 454T556 364T582 269T606 183T624 121T631 97H637Q650 131 666 176T701 270T736 368T768 458T790 527T799 562Q799 581 783 589T731 597H681L679 601L686 644Q686 644
707 643T761 639T825 637Q848 637 872 637T914 639T931 640L924 593Q895 592 883 583T860 545L650 5L588 -17Q588 -17 578 18T551 113T512 249T463 407H457L315 5L251 -17Z" />
<glyph unicode="X" horiz-adv-x="656" d="M365 -8L362 -1L366 38Q406 40 425 48T444 73Q444 82 439 92T424 117L315 281L223 159Q194 120 183 102T172 70Q172 44 230 40L232 36L225 -7Q225 -7 214 -6T184 -4T148 -1T115 0Q100 0 83 0T51 -2T26 -3T16 -4L12 3L19
44Q49 53 74 71T125 117T181 182L291 318L160 514Q144 539 124 556T79 583T23 597L21 601L27 640Q27 640 42 640T81 639T129 638T171 637Q201 637 225 638T268 641T296 644T306 645L309 638L306 603Q265 600 247 592T228 567Q228 555 259 505T341 377Q358 400 380
429T423 486T458 538T472 571Q472 585 459 591T414 601L412 605L418 644Q418 644 438 643T483 639T528 637Q548 637 570 638T609 640T625 641L629 634L623 597Q593 591 573 580T534 549T487 493L366 340L512 127Q539 88 570 69T649 44L651 40L644 -3Q644 -3 632
-3T600 -2T559 -1T520 0Q503 0 483 -1T442 -3T404 -5T376 -7T365 -8Z" />
<glyph unicode="Y" horiz-adv-x="538" d="M144 -12L150 34Q186 41 202 52T223 84T228 142V186Q228 215 223 239T199 299L109 482Q89 523 76 547T42 582T-17 597L-19 601L-13 640Q-13 640 -3 640T24 639T60 638T97 637Q118 637 142 638T189 641T225 644T239 645L242
638L239 603Q194 599 179 592T163 567Q163 558 174 530T202 464T235 392T263 333T275 309H280L394 521Q410 550 410 571Q410 584 395 591T347 601L345 605L351 644Q351 644 371 643T417 639T462 637Q482 637 503 638T539 640T554 641L558 634L552 597Q518 591 499
579T464 541T421 467L321 291Q311 273 307 253T301 200T299 112Q298 74 307 59T343 44Q358 44 375 45T392 47L394 43L385 -3Q385 -3 372 -3T338 -2T297 -1T258 0Q239 0 219 -2T182 -6T155 -10T144 -12Z" />
<glyph unicode="Z" horiz-adv-x="568" d="M48 -3L34 29L407 593L234 587Q188 585 161 572T119 529T99 449L52 445Q52 445 54 462T60 508T66 571T70 640L80 649L255 638L513 631L524 602Q453 508 390 419T276 253T190 121T138 40L341 47Q393 48 425 88T473 213L520
218Q520 218 517 200T510 152T501 85T495 13L480 -3L118 3L48 -3Z" />
<glyph unicode="[" horiz-adv-x="309" d="M278 -137L96 -126Q96 -126 97 -97T100 -23T103 74T106 173T107 250Q107 280 106 327T104 426T100 525T97 600T96 629L280 640L284 634L278 603L164 579V-76L280 -100L284 -107L278 -137Z" />
<glyph unicode="\" horiz-adv-x="329" d="M243 -110Q243 -110 236 -83T217 -10T190 95T159 215Q146 264 130 323T98 443T68 553T46 634T37 665L45 675H91L206 226Q221 169 237 111T267 5T289 -72T298 -102L291 -110H243Z" />
<glyph unicode="]" horiz-adv-x="309" d="M29 -137L25 -131L31 -100L145 -76V579L29 603L25 610L31 640L213 629Q213 629 212 600T210 526T206 429T203 330T202 253Q202 223 203 176T205 77T209 -21T212 -97T213 -126L29 -137Z" />
<glyph unicode="^" horiz-adv-x="506" d="M281 473Q281 473 289 453T311 402T338 336T365 275Q378 244 393 211T421 150T442 105T450 87L410 57L399 58Q399 58 387 86T357 156T320 239L250 407H244L184 253Q171 222 158 189T135 126T118 78T111 59L61 66L56 75Q56
75 63 93T82 141T108 206T137 276L223 479L270 481L281 473Z" />
<glyph unicode="_" horiz-adv-x="458" d="M0 -144L-6 -135L5 -86Q5 -86 29 -86T91 -86T170 -87T244 -87Q274 -87 311 -86T381 -84Q413 -83 435 -83T458 -81L464 -91L456 -142Q408 -142 352 -142T238 -142T132 -143T47 -144T0 -144Z" />
<glyph unicode="`" horiz-adv-x="398" d="M240 521Q198 559 160 590T97 641T72 660L71 671L109 712L119 714Q119 714 132 699T167 658T215 602T269 542L249 523L240 521Z" />
<glyph unicode="a" horiz-adv-x="466" d="M372 -12Q332 -12 310 8T283 69L279 70Q255 46 234 29T196 2T169 -8Q132 -8 103 8T58 52T41 116Q41 145 55 167T94 196L284 248L285 292Q285 342 262 370T197 398Q169 398 138 385T77 348L72 351L60 394Q86 409 118 425T179
453T223 464Q267 464 298 449T345 405T362 335Q362 322 360 293T353 229T347 160T344 105Q344 83 355 71T385 59Q402 59 419 67T445 84L459 68Q451 55 438 39T408 8T372 -12ZM186 60Q205 60 230 73T277 108L282 210L146 169Q117 160 117 127Q117 99 136 80T186
60Z" />
<glyph unicode="b" horiz-adv-x="508" d="M223 -12Q190 -12 161 -9T113 -3T94 0L85 8V626Q85 654 76 667T48 680Q40 680 33 679T26 677L23 680L27 713Q53 716 79 721T127 731T162 739T175 742L181 729Q177 722 173 678T165 561T158 394Q204 427 236 445T279 464Q336
464 379 437T447 362T472 250Q472 177 439 118T349 23T223 -12ZM251 43Q318 43 356 88T395 213Q395 264 378 305T330 371T263 396Q243 396 213 381T156 342L153 64Q171 55 199 49T251 43Z" />
<glyph unicode="c" horiz-adv-x="424" d="M245 -12Q182 -12 135 15T62 92T36 209Q36 281 66 338T149 430T267 464Q299 464 325 460T368 450T384 445L387 438Q387 438 383 420T373 371T366 300L325 297V328Q325 365 303 387T243 410Q182 410 149 367T116 243Q116
156 152 106T252 55Q280 55 306 63T348 80T365 88L371 86L382 55Q382 55 368 45T332 22T287 -2T245 -12Z" />
<glyph unicode="d" horiz-adv-x="537" d="M450 -12Q372 -12 361 59L354 62Q302 27 271 9T229 -9Q172 -9 129 17T61 91T36 202Q36 274 69 333T160 428T285 464Q299 464 316 463T354 460V626Q354 654 345 667T317 680Q309 680 301 678T292 676L296 713Q322 716 348
721T396 731T431 739T444 742L450 729Q446 722 442 684T435 584T428 445T424 280T422 105Q422 83 433 71T463 59Q479 59 492 65T514 78T523 84L537 68Q537 68 530 58T511 34T484 6T450 -12ZM245 56Q263 56 282 64T317 82T344 101T354 109V383Q354 383 328 394T257
406Q190 406 152 361T113 236Q113 186 130 145T178 80T245 56Z" />
<glyph unicode="e" horiz-adv-x="448" d="M246 -12Q183 -12 136 16T63 93T36 209Q36 260 53 306T102 387T172 443T257 464Q406 464 406 319Q406 306 404 292T400 270L387 258H111Q110 169 143 118T238 58T382 87L388 85L399 56Q379 42 352 26T296 -1T246 -12ZM115
295L296 304Q311 306 316 311T321 331Q321 371 300 392T238 413Q192 413 158 382T115 295Z" />
<glyph unicode="f" horiz-adv-x="330" d="M46 -4L51 35Q80 39 94 54T108 94V364Q107 388 95 396T45 405L41 411L48 445L108 456V460Q109 547 137 610T216 708T338 742Q389 742 420 733T452 723L454 714Q454 714 444 696T423 649L412 646Q412 646 397 655T356 674T297
683Q259 683 234 663T196 602T182 498L181 449Q217 449 248 450T299 451T319 452L322 449L312 396Q312 396 294 397T245 398T180 399L176 98Q176 43 227 43Q253 43 270 44T287 45L289 41L282 -2Q282 -2 269 -2T235 -1T194 -1T158 0Q137 0 117 0T81 -2T56 -3T46
-4Z" />
<glyph unicode="g" horiz-adv-x="501" d="M213 -242Q166 -242 132 -226T80 -180T61 -109Q75 -92 101 -68T160 -19V-13Q108 -4 81 21T51 85Q69 102 90 118T135 149V163L187 146Q156 130 143 118T129 92Q129 72 153 63T214 49T294 39T374 24T436 -7T460 -65Q460
-98 440 -130T384 -187T304 -227T213 -242ZM247 -193Q286 -193 320 -180T375 -143T396 -94Q396 -74 381 -62T325 -41T203 -21Q173 -42 157 -67T141 -118Q141 -152 170 -172T247 -193ZM251 174Q297 174 323 203T350 283Q350 341 318 377T235 413Q189 413 163 383T136
302Q136 245 168 210T251 174ZM228 130Q179 130 142 149T83 203T61 282Q61 332 86 373T154 439T247 464Q275 464 300 459T345 453Q365 455 401 463T483 483L486 479L475 423Q453 420 429 418T389 414L385 409Q425 365 425 307Q425 258 399 218T328 154T228 130Z"
/>
<glyph unicode="h" horiz-adv-x="534" d="M35 39Q64 42 75 54T87 94V626Q87 653 79 665T50 678H29L25 681L29 713Q52 716 79 721T133 731T177 742L183 729Q179 722 174 676T166 555T159 386Q166 391 184 403T226 430T272 454T309 464Q374 464 410 431T446 335Q446
322 444 292T438 225T433 154T430 98Q430 69 438 56T465 42Q471 42 481 42T500 44L502 40L494 -3Q478 -2 452 -1T405 0Q393 0 376 -1T340 -5T302 -12L306 29Q336 37 349 52T362 94L368 292Q368 342 347 369T285 396Q260 396 224 380T158 341Q157 304 157 264T156
183T155 98Q155 67 163 55T191 42Q197 42 207 42T226 44L228 40L219 -3Q202 -2 175 -1T128 0Q107 0 79 0T29 -2L35 39Z" />
<glyph unicode="i" horiz-adv-x="282" d="M44 -12L48 29Q78 37 91 52T104 94V348Q104 376 95 389T67 402Q59 402 51 400T42 398L46 435Q71 439 96 444T143 453T177 461T190 464L195 452Q191 442 187 408T179 324T174 216T172 98Q172 69 180 56T207 42Q216 42 229
43T242 44L244 40L236 -3Q236 -3 228 -3T206 -2T177 -1T147 0Q126 0 102 -3T61 -9T44 -12ZM388 582Q363 582 351 598T339 633Q339 657 356 674T398 692Q422 692 434 677T447 641Q447 617 431 600T388 582Z" />
<glyph unicode="j" horiz-adv-x="250" d="M33 -241L15 -222L17 -214Q46 -185 62 -153T84 -76T91 38V348Q91 379 83 390T51 402Q43 402 34 401T24 399L28 436Q51 439 76 443T123 453T158 461T172 464L177 452Q169 438 165 318T160 -14Q160 -86 128 -144T33 -241ZM121
602Q99 602 86 616T72 653Q72 678 89 695T131 712Q152 712 166 698T180 661Q180 636 163 619T121 602Z" />
<glyph unicode="k" horiz-adv-x="497" d="M34 35Q61 39 72 49T85 81T87 135V626Q87 680 50 680Q42 680 34 678T25 676Q25 681 25 685T27 694L29 713Q55 716 81 721T129 731T164 739T177 742L183 729Q179 722 175 684T168 584T161 444T157 277T155 98Q155 67 163
55T191 42Q200 42 213 43T226 44L228 40L219 -3Q219 -3 210 -3T187 -2T158 -1T128 0Q107 0 84 -1T45 -4T29 -6L34 35ZM180 234L182 250L301 364Q315 377 320 384T325 399Q325 410 312 415T270 420L267 425L276 454Q276 454 294 454T335 453T377 452Q396 452 418
453T456 456T472 458L475 453L467 422Q431 412 395 384T323 320T254 253L359 118Q394 74 421 55T480 36L483 31L477 2Q477 2 462 -2T429 -10T403 -14Q393 -14 385 -11T368 -4Q352 4 337 21T298 71L180 234Z" />
<glyph unicode="l" horiz-adv-x="244" d="M27 -12L31 29Q60 37 71 49T85 83T87 135V626Q87 651 83 662T66 677T28 677L25 679L29 713Q66 718 103 725T177 742L183 729Q179 722 175 684T168 583T161 441T157 274T155 98Q155 68 163 55T190 42L225 44L227 40L219
-3Q203 -2 177 -1T130 0Q112 0 85 -3T27 -12Z" />
<glyph unicode="m" horiz-adv-x="832" d="M325 29Q355 37 368 52T381 94L385 292Q385 342 364 369T302 396Q278 396 253 386T209 364T179 344Q178 318 177 283T174 210T171 143T170 98Q170 67 178 55T206 42Q215 42 228 43T241 44L243 40L234 -3Q234 -3 219 -2T183
-1T143 0Q122 0 99 0T60 -1T44 -2L50 39Q79 42 90 54T102 94V338Q102 372 91 385T53 399H42L39 403L42 436Q77 442 109 448T161 460T182 465L188 457Q188 457 184 437T177 391L179 388Q188 394 207 406T248 432T292 455T326 464Q374 464 407 444T454 385Q460 390
478 402T521 429T567 453T605 464Q668 464 705 429T742 335Q742 322 740 292T735 225T730 154T728 98Q728 67 736 55T764 42Q773 42 786 43T799 44L801 40L792 -3Q792 -3 783 -3T760 -2T731 -1T701 0Q685 0 668 -1T636 -3T612 -5T602 -6L607 35Q636 40 648 53T660
94L664 292Q664 342 643 369T581 396Q557 396 534 387T491 366T460 346L449 98Q449 69 457 56T484 42Q493 42 506 43T519 44L521 40L513 -3Q513 -3 505 -3T483 -2T454 -1T424 0Q408 0 391 -2T357 -6T331 -10T321 -12L325 29Z" />
<glyph unicode="n" horiz-adv-x="548" d="M327 29Q357 37 370 52T383 94L387 292Q387 342 366 369T304 396Q280 396 255 386T211 364T181 344Q180 318 179 283T176 210T173 143T172 98Q172 67 180 55T208 42Q217 42 230 43T243 44L245 40L236 -3Q236 -3 221 -2T185
-1T145 0Q124 0 101 -1T62 -4T46 -6L51 35Q80 40 92 53T104 94V338Q104 372 93 385T55 399H44L41 403L44 436Q79 442 111 448T163 460T184 465L190 457Q190 457 186 437T179 391L181 388Q190 394 209 406T251 432T295 454T328 464Q391 464 428 429T465 335Q465
322 463 292T458 225T453 154T451 98Q451 69 459 56T486 42Q495 42 508 43T521 44L523 40L515 -3Q515 -3 507 -3T485 -2T456 -1T426 0Q410 0 393 -2T359 -6T333 -10T323 -12L327 29Z" />
<glyph unicode="o" horiz-adv-x="498" d="M230 -12Q173 -12 129 16T61 94T36 210Q36 282 66 339T150 430T268 464Q325 464 369 436T437 358T462 242Q462 171 432 113T349 22T230 -12ZM258 37Q314 37 347 82T380 206Q380 266 362 312T312 384T238 410Q182 410 149
364T116 239Q116 179 134 134T184 63T258 37Z" />
<glyph unicode="p" horiz-adv-x="528" d="M45 -237L50 -198Q82 -194 91 -181T101 -126Q101 -110 101 -79T102 -15T103 40V338Q103 372 92 385T54 399H43L40 403L43 436Q78 442 110 448T162 460T183 465L189 457Q189 457 185 440T179 403L183 396Q227 427 257 444T299
461Q357 461 400 435T467 361T492 250Q492 196 473 149T419 65T339 9T243 -12Q231 -12 214 -11T184 -9T170 -8Q170 -33 170 -59T171 -111Q171 -157 180 -173T218 -190Q226 -190 235 -190T252 -189L254 -192L246 -230Q234 -230 222 -230T199 -230T175 -230T151 -230Q123
-230 99 -231T60 -235T45 -237ZM271 43Q338 43 376 88T415 213Q415 264 398 304T350 369T283 393Q263 393 234 380T179 344Q177 303 175 254T172 155T171 62Q191 54 218 49T271 43Z" />
<glyph unicode="q" horiz-adv-x="516" d="M279 -234L284 -196Q325 -194 337 -183T350 -135L354 60Q305 26 273 7T229 -12Q172 -12 129 15T61 90T36 202Q36 274 69 333T160 428T285 464Q306 464 330 462T377 455Q400 463 416 470T432 478L440 469Q436 458 432 413T426
294T423 118T421 -106Q421 -160 427 -175T457 -190Q468 -190 475 -190T483 -189L485 -191L478 -230H386Q369 -230 350 -230T315 -232T289 -233T279 -234ZM245 53Q263 53 282 61T317 81T344 100T354 109V383Q354 383 328 394T257 406Q190 406 152 361T113 236Q113
185 130 144T178 78T245 53Z" />
<glyph unicode="r" horiz-adv-x="383" d="M59 36Q89 39 99 55T109 119V339Q109 372 100 386T71 400Q63 400 57 399T50 397L45 404L48 435Q79 441 110 448T162 460T183 465L190 459Q190 459 188 443T183 404T181 356L185 353Q216 400 256 430T326 460Q343 460 350
458T357 456L360 452Q360 452 358 439T353 404T348 357T344 309L305 306Q305 347 300 360T278 374Q256 374 231 356T185 306Q185 306 184 288T182 241T180 184T178 132T177 102Q177 68 187 56T225 44Q236 44 252 45T269 46L270 42L261 -2Q261 -2 251 -2T225 -1T192
-1T159 0Q130 0 106 -1T68 -3T54 -4L59 36Z" />
<glyph unicode="s" horiz-adv-x="402" d="M171 -12Q135 -12 108 -7T67 4T52 9L49 16Q51 27 53 52T58 106T61 150L96 155Q96 89 118 62T193 35Q231 35 257 52T283 94Q283 111 273 125T238 156T167 197Q110 226 84 256T58 322Q58 363 82 395T148 445T242 464Q283
464 312 456T342 448L344 443Q344 443 341 426T333 382T325 321L288 318Q288 318 289 329T290 347Q290 383 271 399T208 416Q174 416 151 400T127 361Q127 337 147 316T214 271Q268 243 298 221T341 177T354 131Q354 93 329 60T262 8T171 -12Z" />
<glyph unicode="t" horiz-adv-x="330" d="M206 -12Q138 -12 110 15T82 109V355Q82 382 70 393T25 405L21 411L26 441Q50 453 72 468T112 498T140 522T150 532L170 524Q170 524 168 505T162 449L309 452L312 449L303 396L158 399Q155 352 153 289T151 149Q151 98
168 77T229 56Q254 56 275 65T297 74L307 48Q307 48 295 39T266 18T232 -3T206 -12Z" />
<glyph unicode="u" horiz-adv-x="541" d="M90 347Q90 373 81 387T53 401Q45 401 37 399T28 397L32 434Q55 438 80 443T126 453T161 461T175 464L181 452Q176 439 172 408T163 334T157 246T155 155Q155 57 235 57Q270 57 300 76T356 114V346Q356 376 345 388T306
400Q302 400 292 400T282 399L286 435Q313 439 340 444T389 453T426 461T440 464L446 452Q440 437 435 385T427 259T424 105Q424 83 435 71T465 59Q481 59 494 65T516 78T525 84L539 68Q539 68 531 56T509 28T480 0T452 -12Q371 -12 363 69L358 71Q310 34 272 11T219
-12Q155 -12 121 18T86 104L90 347Z" />
<glyph unicode="v" horiz-adv-x="445" d="M182 -17Q182 -17 175 5T157 63T132 142T105 228T79 308T60 366Q43 414 -8 416L-10 420L-4 453Q-4 453 12 453T48 453T79 452Q110 452 137 454T181 457T199 459L201 454L195 423Q161 422 149 417T136 397Q136 390 142
365T158 304T178 231T199 160T215 107T221 86H225Q262 178 288 242T329 343T343 392Q343 406 334 411T300 416H262L258 422L263 453Q263 453 279 453T321 453T370 452Q388 452 407 452T439 453T452 453L445 416Q424 413 412 399T381 341L238 0L182 -17Z" />
<glyph unicode="w" horiz-adv-x="705" d="M182 -17Q182 -17 176 5T158 63T134 142T107 228T83 308T64 366Q47 415 -2 416L-4 420L2 453Q2 453 17 453T52 453T82 452Q112 452 139 454T182 457T199 459L201 454L195 423Q162 422 150 417T138 397Q138 389 144 364T159
303T179 230T199 159T215 106T221 85H225Q240 124 253 157T278 220T300 272T317 315T330 350Q320 382 305 399T259 416L257 420L263 453Q263 453 278 453T313 453T343 452Q373 452 399 453T443 456T460 457L462 452L456 421Q422 420 411 415T399 397Q399 390 405
365T420 304T440 230T460 159T476 106T482 85H486Q522 177 548 241T588 342T602 392Q602 406 593 411T561 417H524L520 423L525 454Q525 454 540 454T577 453T624 452Q641 452 660 452T692 453T706 453L699 416Q679 414 667 400T637 341L497 0L443 -17Q443 -17
435 11T412 85T383 182T353 278H347L237 0L182 -17Z" />
<glyph unicode="x" horiz-adv-x="475" d="M256 -6L254 -1L260 30Q285 31 295 36T306 51Q306 57 302 66T289 88L216 190Q198 168 174 139T133 85T115 51Q115 41 124 38T159 33L161 29L155 -4Q155 -4 146 -4T122 -2T95 -1T72 0Q59 0 45 0T22 -2T12 -3L9 2L15 33Q33
43 46 53T73 80T108 121L194 221L118 329Q96 361 81 378T50 403T10 416L8 420L14 454Q14 454 32 454T75 453T115 452Q144 452 167 453T203 455T217 456L219 451L213 420Q168 420 168 401Q168 391 175 380T192 354L247 274L308 351Q322 368 330 380T339 402Q339
410 331 412T296 415L294 419L299 452H372Q386 452 402 453T431 454T443 455L446 450L440 418Q424 413 403 393T356 343L270 242L362 111Q388 74 410 57T463 36L465 32L459 -2Q459 -2 443 -2T406 -1T368 0Q353 0 334 -1T297 -3T268 -5T256 -6Z" />
<glyph unicode="y" horiz-adv-x="446" d="M36 -241Q32 -241 25 -234T11 -218T-2 -199T-8 -184L-3 -177Q55 -177 103 -130T185 0Q176 29 164 66T139 143T112 224T85 302T61 368Q51 394 35 404T-7 416L-9 420L-3 453Q-3 453 13 453T49 453T80 452Q102 452 123 453T162
455T189 458T200 459L202 454L196 423Q162 422 151 417T139 397Q139 388 145 363T162 303T183 233T204 165T220 114T227 94H231Q248 135 268 183T305 277T334 354T346 393Q346 407 337 413T308 419H262L260 423L266 456Q266 456 281 455T320 453T368 452Q386 452
405 452T439 453T453 453L446 416Q424 412 413 400T390 359L263 55Q226 -34 198 -92T146 -183T95 -229T36 -241Z" />
<glyph unicode="z" horiz-adv-x="460" d="M36 23L308 414L183 408Q151 406 132 398T105 371T92 318L53 312Q53 312 54 325T58 360T62 407T64 457L70 462L198 454L408 449L416 428Q345 337 286 255T186 115T130 35L278 44Q318 47 340 75T372 166L412 171Q412 171
410 156T404 118T398 66T395 10L379 -6L98 3L46 -2L36 23Z" />
<glyph unicode="{" horiz-adv-x="309" d="M226 -133Q187 -133 159 -117T117 -75T102 -17Q102 13 112 46T132 109T143 159Q143 197 115 217T46 247L50 268Q86 278 114 298T143 351Q143 374 133 405T112 470T102 533Q102 580 134 614T228 649Q241 649 254 648T276
645T285 643L288 638L280 608Q280 608 264 610T234 613Q201 613 187 592T173 544Q173 522 180 490T193 424T200 365Q200 319 177 296T127 265V259Q156 249 178 225T200 154Q200 128 194 94T180 27T173 -29Q173 -56 187 -76T235 -97Q250 -97 267 -94T285 -91L288
-97L280 -125Q280 -125 265 -129T226 -133Z" />
<glyph unicode="|" horiz-adv-x="372" d="M161 -269L152 -263Q152 -263 152 -236T152 -164T152 -61T152 57T152 174T153 276L154 796L214 807L225 801Q225 801 225 775T224 706T222 608T221 497T220 386T219 291Q219 248 219 191T219 73T219 -48T220 -154T220
-230T220 -258L161 -269Z" />
<glyph unicode="}" horiz-adv-x="309" d="M81 -133Q68 -133 55 -132T33 -129T24 -127L21 -122L29 -92Q29 -92 45 -94T75 -97Q108 -97 122 -76T136 -28Q136 -5 130 27T116 92T109 151Q109 197 133 220T182 251V257Q154 268 132 292T109 362Q109 389 116 422T129
489T136 545Q136 572 122 592T74 613Q59 613 42 610T24 607L21 613L29 641Q29 641 45 645T83 649Q123 649 150 633T192 591T207 533Q207 504 197 471T177 408T166 357Q166 320 194 299T263 269L259 248Q223 238 195 218T166 165Q166 142 176 111T197 46T207 -17Q207
-63 175 -98T81 -133Z" />
<glyph unicode="~" horiz-adv-x="506" d="M65 202L43 223V228L119 317L135 321Q155 321 188 315T258 300T326 285T375 278Q384 278 395 286T415 305T431 324T438 333H444L466 312V307L390 218L374 214Q354 214 321 220T251 235T183 250T134 257Q125 257 114 249T94
230T78 211T71 202H65Z" />
<glyph unicode="&#xa0;" horiz-adv-x="198" />
<glyph unicode="&#xa1;" horiz-adv-x="285" d="M97 -242L88 -231L140 243L168 250L179 242L187 -214L180 -224L97 -242ZM162 345Q134 345 120 362T105 402Q105 428 122 446T168 464Q197 464 210 447T224 407Q224 382 208 364T162 345Z" />
<glyph unicode="&#xa2;" horiz-adv-x="424" d="M281 658L287 649L211 -151L185 -154L180 -147L255 654L281 658ZM245 -12Q182 -12 135 15T62 92T36 209Q36 281 66 338T149 430T267 464Q299 464 325 460T368 450T384 445L387 438Q387 438 383 420T373 371T366 300L325
297V328Q325 365 303 387T243 410Q182 410 149 367T116 243Q116 156 152 106T252 55Q280 55 306 63T348 80T365 88L371 86L382 55Q382 55 368 45T332 22T287 -2T245 -12Z" />
<glyph unicode="&#xa3;" horiz-adv-x="525" d="M395 -12Q360 -12 317 -1T229 22T144 33Q100 33 60 3L53 7L38 41Q142 110 142 204V252Q141 275 129 283T79 293L75 299L82 333L142 344V361Q142 415 156 458T195 533T257 581T337 598Q367 598 396 594T440 583L445
572L422 509L403 506Q372 523 346 531T300 539Q257 539 234 508T209 415L206 337Q245 337 282 338T343 339T367 340L370 337L360 284Q360 284 337 285T279 286T204 287L202 208Q200 168 184 135T138 78L193 89Q222 89 252 84T311 73T365 67Q399 67 417 85T440 142L458
140Q465 124 468 110T471 82Q471 42 449 15T395 -12Z" />
<glyph unicode="&#xa4;" horiz-adv-x="475" d="M84 173L73 176L50 215Q50 215 70 234T115 277Q90 313 90 359Q90 406 117 444Q99 462 83 477T57 503T47 513L49 525L88 551Q88 551 108 530T155 482Q172 493 193 499T236 506Q259 506 279 500T317 482Q335 501 350
518T375 546T385 557L398 554L425 514L355 445Q369 427 376 405T383 359Q383 337 377 318T360 281Q387 256 409 236T431 215L428 204L388 174L322 240Q284 213 236 213Q189 213 151 240Q125 213 105 193T84 173ZM236 261Q277 261 306 290T335 359Q335 400 306 429T236
458Q196 458 167 429T138 359Q138 319 167 290T236 261Z" />
<glyph unicode="&#xa5;" horiz-adv-x="532" d="M158 -10L163 33Q198 39 211 49T227 83T229 148Q199 148 169 148T109 148T49 147L44 154L49 183H226Q222 196 218 208T205 236L181 279Q148 279 115 279T49 278L44 285L49 314H161Q142 349 129 375T103 420T71 449T20
460Q19 462 19 464T18 469Q20 478 22 487T25 505Q25 505 41 505T80 503T122 502Q137 502 153 503T185 505T214 507T234 508T242 509L247 499L244 465Q202 461 192 456T181 441Q181 434 184 426T193 405Q193 405 193 405T192 405L272 248L365 407Q370 416 374 425T378
444Q378 450 372 453T353 460T325 464Q325 466 325 468T324 471L329 508Q329 508 346 507T386 504T427 502Q444 502 462 503T494 504T507 505L512 498L506 461Q479 457 465 449T439 426T409 384L367 316Q396 317 425 317T482 318L488 309L485 279H344L309 222Q305
215 303 204T299 183Q330 184 360 184T421 186T482 187L488 178L485 148H298Q298 134 298 119T297 90Q297 62 303 52T329 42Q334 42 338 42T348 43Q359 44 367 44T375 44L377 36L368 -2Q368 -2 357 -2T328 -1T291 -1T258 0Q243 0 226 -1T193 -5T168 -8T158 -10Z"
/>
<glyph unicode="&#xa6;" horiz-adv-x="372" d="M157 367L153 370Q153 477 153 583T154 796L214 807L225 801Q225 801 225 774T223 702T222 602T220 488T219 376L157 367ZM161 -269L152 -263Q152 -209 152 -156T152 -49T152 58T152 166L216 178L219 175Q219 117
219 56T219 -61T220 -161T220 -232T220 -258L161 -269Z" />
<glyph unicode="&#xa7;" horiz-adv-x="512" d="M360 42Q361 12 340 -22T280 -81T194 -105Q161 -105 135 -95T93 -66T77 -25Q77 -2 82 25T92 60H107Q117 7 149 -25T225 -58Q257 -58 279 -38T302 14Q302 45 283 70T233 119T169 166T104 216T55 276T35 350Q35 380
50 410T93 469T160 518L164 484Q125 462 108 439T91 383Q91 353 110 327T160 275T225 224T290 170T340 111T360 42ZM348 68Q383 88 401 114T419 173Q419 201 400 226T350 277T285 328T221 381T171 439T151 504Q151 543 171 576T224 629T298 649Q324 649 346 642T383
624T397 600Q397 588 394 572T387 541T378 522H364Q350 557 321 578T262 600Q238 600 222 583T206 538Q206 507 225 481T276 432T341 386T407 336T457 279T477 208Q477 173 461 139T416 76T351 31L348 68Z" />
<glyph unicode="&#xa8;" horiz-adv-x="398" d="M277 546Q257 546 247 559T236 589Q236 609 250 624T286 639Q306 639 316 626T327 596Q327 576 313 561T277 546ZM111 546Q91 546 81 559T70 589Q70 609 84 624T120 639Q140 639 150 626T161 596Q161 576 147 561T111 546Z" />
<glyph unicode="&#xa9;" horiz-adv-x="693" d="M346 -12Q283 -12 228 12T131 77T66 174T42 293Q42 356 65 411T130 508T227 574T346 598Q409 598 464 574T562 509T627 412T651 293Q651 230 628 175T562 78T465 12T346 -12ZM339 131Q288 131 255 152T206 209T189
287Q189 337 210 377T271 440T362 463Q385 463 407 460T443 454T458 451L460 447Q460 447 455 421T447 357L414 355Q414 355 414 363T415 379Q415 398 401 410T351 423Q307 423 281 393T255 304Q255 243 279 205T353 167Q388 167 406 185T432 242L464 244Q464 244
461 230T455 196T451 157L447 150Q447 150 433 146T395 136T339 131ZM346 28Q400 28 448 48T532 105T588 190T609 293Q609 348 589 396T532 480T448 537T346 558Q292 558 245 538T161 481T105 396T84 293Q84 238 104 190T161 106T244 49T346 28Z" />
<glyph unicode="&#xaa;" horiz-adv-x="321" d="M251 343Q195 343 190 393L186 394Q165 374 146 360T115 346Q79 346 55 370T30 432Q30 451 40 465T66 484L188 514L189 534Q189 563 175 579T134 595Q114 595 97 588T69 573T58 565L53 567L44 600Q44 600 57 607T88
623T125 640T155 647Q189 647 210 636T243 607T254 563Q254 552 251 526T245 471T242 427Q242 400 266 400Q280 400 290 406T301 413L310 401Q310 401 305 394T292 376T274 356T251 343ZM134 399Q145 399 159 405T185 422L187 484L111 462Q94 457 94 439Q94 422
105 411T134 399Z" />
<glyph unicode="&#xab;" horiz-adv-x="427" d="M362 46Q334 75 304 104T248 158T206 197T190 212V227Q190 227 206 242T247 282T303 338T362 400L384 385L385 375Q358 338 332 301T278 226Q305 187 331 149T385 71L384 61L362 46ZM196 46Q168 75 138 104T82 158T40
197T24 212V227Q24 227 40 242T81 282T137 338T196 400L218 385L219 375Q192 338 166 301T112 226Q139 187 165 149T219 71L218 61L196 46Z" />
<glyph unicode="&#xac;" horiz-adv-x="506" d="M402 30L393 36Q393 36 393 54T393 103T394 168T394 236L253 235Q219 235 180 235T105 235T47 234T24 234L18 243L29 292Q29 292 53 292T115 292T194 291T268 291Q298 291 330 292T390 294T435 296T452 297L458 287Q458
287 456 270T453 227T450 177Q450 142 450 111T451 61T451 41L402 30Z" />
<glyph unicode="&#xad;" horiz-adv-x="380" d="M71 210L64 218L70 270L244 290Q279 294 294 296T309 299L316 290L311 236L71 210Z" />
<glyph unicode="&#xae;" horiz-adv-x="468" d="M234 303Q178 303 132 330T58 404T30 507Q30 564 57 610T131 683T234 711Q291 711 337 684T410 610T438 507Q438 451 411 405T337 331T234 303ZM234 338Q281 338 319 361T380 422T403 507Q403 554 380 592T319 653T234
676Q188 676 150 653T88 592T65 507Q65 461 88 423T149 361T234 338ZM297 407Q287 407 278 414T260 439L231 494H206Q205 484 205 476T205 461Q205 443 208 438T229 433Q230 432 230 431T231 429L229 412Q229 412 224 412T212 413T197 413H185Q172 413 156 412T140
411L142 432Q160 434 163 441T167 470V581Q167 592 165 595T155 599Q152 599 150 599T144 599L142 603L145 620Q145 620 161 620T188 619H199Q209 620 219 620T230 621Q268 621 289 607T311 566Q311 540 296 526T263 503L292 460Q303 444 313 436T333 428L336 424Q336
416 332 412T319 408T297 407ZM236 517Q244 520 255 529T267 559Q267 580 253 588T215 597Q209 597 209 589Q208 572 208 555T207 520Q212 520 220 519T236 517Z" />
<glyph unicode="&#xaf;" horiz-adv-x="398" d="M56 574L50 583L60 628Q60 628 75 628T115 628T165 627T214 627Q239 627 269 628T321 631T343 633L349 623L342 576L200 575Q171 575 137 575T80 575T56 574Z" />
<glyph unicode="&#xb0;" horiz-adv-x="302" d="M151 397Q116 397 88 414T42 459T25 523Q25 558 42 586T87 632T151 649Q186 649 214 632T260 587T277 523Q277 488 260 460T215 414T151 397ZM151 439Q186 439 210 464T235 523Q235 558 211 582T151 607Q117 607
92 583T67 523Q67 489 92 464T151 439Z" />
<glyph unicode="&#xb1;" horiz-adv-x="506" d="M230 53L221 59Q221 59 221 88T222 161T222 248Q189 248 155 248T90 248T42 247T24 247L18 256L29 305Q29 305 59 305T134 305T222 304Q222 352 222 399T223 495L274 503L284 497Q284 497 283 479T281 431T279 368T278
304Q308 304 343 305T410 307T462 309T482 310L488 300L480 249Q430 249 379 249T278 248Q278 206 278 164T279 93T279 64L230 53ZM24 -75L18 -66L29 -17Q29 -17 53 -17T115 -17T194 -18T268 -18Q298 -18 335 -17T405 -15Q437 -14 459 -14T482 -12L488 -22L480
-73Q432 -73 376 -73T262 -73T156 -74T71 -75T24 -75Z" />
<glyph unicode="&#xb2;" horiz-adv-x="329" d="M24 369L93 446Q140 504 164 548T188 624Q188 669 137 669Q82 669 45 607H38L28 648Q48 682 84 705T155 728Q204 728 233 705T263 643Q263 618 250 587T205 512T119 407L122 402H204Q236 402 249 413T270 459L308
463Q308 463 305 446T297 403T289 352L280 346Q280 346 257 347T198 348T129 350T72 351L30 344L24 369Z" />
<glyph unicode="&#xb3;" horiz-adv-x="293" d="M78 343Q53 343 43 356T31 400L37 407Q50 403 63 401T90 399Q131 399 158 417T186 463Q186 495 161 509T82 523L77 528L73 560L115 569Q138 580 153 598T168 635Q168 654 156 665T124 676Q87 676 52 648H45L35 685Q40
689 58 699T100 718T148 728Q187 728 212 707T237 653Q237 628 218 604T167 565V560Q211 548 232 526T254 472Q254 442 228 412T161 363T78 343Z" />
<glyph unicode="&#xb4;" horiz-adv-x="398" d="M158 521L149 523L129 542Q156 571 182 601T231 657T266 699T279 715L289 713L327 672L326 661Q326 661 302 642T239 591T158 521Z" />
<glyph unicode="&#xb5;" horiz-adv-x="547" d="M225 -7Q166 27 135 87L105 72L139 179Q154 124 172 102T218 80Q262 80 294 120T353 230Q354 293 359 348T371 446L397 463Q415 453 429 441T456 414Q431 315 410 241T369 113L359 118Q338 70 318 43T275 4T225 -7ZM94
-240L78 -229L102 264L112 139Q92 205 83 252T75 345T84 448L104 461H118L172 433L129 80Q132 1 145 -73T177 -224Q164 -228 141 -232T94 -240ZM475 -11Q420 -11 393 22T363 129L358 268L401 271L398 190Q397 143 409 118T451 87T532 95L537 87Q531 57 516 32T475
-11Z" />
<glyph unicode="&#xb6;" horiz-adv-x="561" d="M225 -105Q191 -105 160 -95T110 -64T91 -11Q91 9 102 35T129 78H144Q144 11 170 -23T240 -58Q282 -58 304 -39T333 22T341 134V578Q340 588 337 590T314 592Q264 592 240 551T216 445Q216 371 233 323T285 227V212Q221
218 166 244T76 320T42 445Q42 499 67 543T140 614T253 641Q291 641 327 639T382 637Q396 637 417 637T458 638T493 639T507 640L501 598L499 594Q453 596 437 586T419 549Q416 531 414 493T411 407T410 310T409 219T408 154Q408 93 401 45T375 -36T320 -87T225
-105Z" />
<glyph unicode="&#xb7;" horiz-adv-x="238" d="M116 168Q88 168 74 185T60 225Q60 251 77 269T122 287Q150 287 164 270T179 230Q179 205 162 187T116 168Z" />
<glyph unicode="&#xb8;" horiz-adv-x="398" d="M167 -233Q152 -233 137 -229T110 -217T99 -197Q99 -187 108 -170T124 -141H133Q134 -169 149 -183T188 -198Q208 -198 222 -188T236 -160Q236 -148 223 -135T191 -109T151 -85L184 23H227L202 -50Q219 -61 238 -75T272
-104T287 -139Q287 -165 269 -186T223 -220T167 -233Z" />
<glyph unicode="&#xb9;" horiz-adv-x="249" d="M35 344L39 379Q68 381 82 391T96 430V639Q96 662 88 668T63 674Q53 674 42 673T30 671L27 674L30 706Q36 707 58 709T104 716Q136 721 152 723T175 727T182 728L187 713Q176 703 171 693T163 662Q162 641 161 610T159
544T158 480T157 429Q157 405 163 396T187 386Q198 386 208 387T219 388L221 385L214 349Q214 349 199 349T163 350T126 351Q108 351 87 350T50 346T35 344Z" />
<glyph unicode="&#xba;" horiz-adv-x="338" d="M159 343Q100 343 64 382T28 486Q28 533 47 569T101 626T180 647Q239 647 274 608T310 504Q310 458 291 422T237 364T159 343ZM174 384Q205 384 222 408T239 478Q239 537 219 569T163 601Q132 601 115 577T98 507Q98
449 118 417T174 384Z" />
<glyph unicode="&#xbb;" horiz-adv-x="427" d="M231 46L209 61L208 71Q235 109 261 146T315 220Q288 259 262 297T208 375L209 385L231 400Q260 371 290 342T345 288T387 249T403 234V219Q403 219 387 204T346 164T290 108T231 46ZM65 46L43 61L42 71Q69 109 95
146T149 220Q122 259 96 297T42 375L43 385L65 400Q94 371 124 342T179 288T221 249T237 234V219Q237 219 221 204T180 164T124 108T65 46Z" />
<glyph unicode="&#xbc;" horiz-adv-x="685" d="M35 260L39 295Q68 297 82 307T96 346V555Q96 578 88 584T63 590Q53 590 42 589T30 587L27 590L30 622Q36 623 58 625T104 632Q136 637 152 639T175 643T182 644L187 629Q176 619 171 609T163 578Q162 557 161 526T159
460T158 396T157 345Q157 321 163 312T187 302Q198 302 208 303T219 304L221 301L214 265Q214 265 199 265T163 266T126 267Q108 267 87 266T50 262T35 260ZM111 -95L73 -76L68 -64Q68 -64 82 -43T119 15T172 95T231 186T288 275L544 678L583 659L588 645Q588 645
570 618T521 545T456 447T387 340T326 245Q299 202 270 155T212 63T161 -17T125 -74T111 -95ZM539 -7L534 -1Q534 -1 535 15T537 56T538 104L384 107L386 141L558 376L561 377L600 371V152H655L660 145L654 101L600 103Q601 67 602 37T604 6L600 0L539 -7ZM442
152H538V277H532L442 152Z" />
<glyph unicode="&#xbd;" horiz-adv-x="713" d="M35 260L39 295Q68 297 82 307T96 346V555Q96 578 88 584T63 590Q53 590 42 589T30 587L27 590L30 622Q36 623 58 625T104 632Q136 637 152 639T175 643T182 644L187 629Q176 619 171 609T163 578Q162 557 161 526T159
460T158 396T157 345Q157 321 163 312T187 302Q198 302 208 303T219 304L221 301L214 265Q214 265 199 265T163 266T126 267Q108 267 87 266T50 262T35 260ZM111 -95L73 -76L68 -64Q68 -64 82 -43T119 15T172 95T231 186T288 275L544 678L583 659L588 645Q588 645
570 618T521 545T456 447T387 340T326 245Q299 202 270 155T212 63T161 -17T125 -74T111 -95ZM408 18L477 95Q524 153 548 197T572 273Q572 318 521 318Q466 318 429 256H422L412 297Q432 331 468 354T539 377Q588 377 617 354T647 292Q647 267 634 236T589 161T503
56L506 51H588Q620 51 633 62T654 108L692 112Q692 112 689 95T681 52T673 1L664 -5Q664 -5 641 -4T582 -3T513 -1T456 0L414 -7L408 18Z" />
<glyph unicode="&#xbe;" horiz-adv-x="689" d="M78 259Q53 259 43 272T31 316L37 323Q50 319 63 317T90 315Q131 315 158 333T186 379Q186 411 161 425T82 439L77 444L73 476L115 485Q138 496 153 514T168 551Q168 570 156 581T124 592Q87 592 52 564H45L35 601Q40
605 58 615T100 634T148 644Q187 644 212 623T237 569Q237 544 218 520T167 481V476Q211 464 232 442T254 388Q254 358 228 328T161 279T78 259ZM115 -95L77 -76L72 -64Q72 -64 86 -43T123 15T176 95T235 186T292 275L548 678L587 659L592 645Q592 645 574 618T525
545T460 447T391 340T330 245Q303 202 274 155T216 63T165 -17T129 -74T115 -95ZM543 -7L538 -1Q538 -1 539 15T541 56T542 104L388 107L390 141L562 376L565 377L604 371V152H659L664 145L658 101L604 103Q605 67 606 37T608 6L604 0L543 -7ZM446 152H542V277H536L446
152Z" />
<glyph unicode="&#xbf;" horiz-adv-x="360" d="M255 -242Q194 -240 143 -218T62 -159T31 -77Q31 -35 46 -6T86 45T140 85T197 124L200 133L179 228L182 236L243 253L252 249L276 129L273 115L154 39Q131 23 114 2T97 -47Q97 -108 153 -138T300 -174L302 -185L269
-238L255 -242ZM211 345Q183 345 169 362T154 402Q154 428 171 446T217 464Q246 464 259 447T273 407Q273 382 257 364T211 345Z" />
<glyph unicode="&#xc0;" horiz-adv-x="584" d="M332 -10L329 -3L333 36Q368 39 387 43T414 54T422 74Q422 84 420 96T413 122L380 231Q362 232 330 232T276 232Q247 232 216 229T167 224L130 120Q121 93 121 81Q121 59 135 50T181 40H238L240 36L234 -7Q234 -7
213 -5T160 -2T95 0Q71 0 46 0T3 -2T-15 -3L-7 44Q21 47 38 63T71 121L266 632L329 649H337Q337 649 343 626T361 561T388 466T421 352T458 231T496 113Q508 76 528 61T592 42L594 38L587 -3Q587 -3 568 -2T523 -1T481 0Q443 0 409 -2T353 -7T332 -10ZM185 273H273Q293
273 321 275T366 278L287 540H280L185 273ZM355 703Q316 718 279 731T213 755T166 771T149 777L145 787L161 835L170 841Q170 841 187 831T234 805T298 770T369 732L363 708L355 703Z" />
<glyph unicode="&#xc1;" horiz-adv-x="584" d="M332 -10L329 -3L333 36Q368 39 387 43T414 54T422 74Q422 84 420 96T413 122L380 231Q362 232 330 232T276 232Q247 232 216 229T167 224L130 120Q121 93 121 81Q121 59 135 50T181 40H238L240 36L234 -7Q234 -7
213 -5T160 -2T95 0Q71 0 46 0T3 -2T-15 -3L-7 44Q21 47 38 63T71 121L266 632L329 649H337Q337 649 343 626T361 561T388 466T421 352T458 231T496 113Q508 76 528 61T592 42L594 38L587 -3Q587 -3 568 -2T523 -1T481 0Q443 0 409 -2T353 -7T332 -10ZM185 273H273Q293
273 321 275T366 278L287 540H280L185 273ZM248 703L240 708L234 732Q269 750 304 769T369 805T415 831T433 841L442 835L458 787L454 777Q454 777 437 771T391 755T324 732T248 703Z" />
<glyph unicode="&#xc2;" horiz-adv-x="584" d="M332 -10L329 -3L333 36Q368 39 387 43T414 54T422 74Q422 84 420 96T413 122L380 231Q362 232 330 232T276 232Q247 232 216 229T167 224L130 120Q121 93 121 81Q121 59 135 50T181 40H238L240 36L234 -7Q234 -7
213 -5T160 -2T95 0Q71 0 46 0T3 -2T-15 -3L-7 44Q21 47 38 63T71 121L266 632L329 649H337Q337 649 343 626T361 561T388 466T421 352T458 231T496 113Q508 76 528 61T592 42L594 38L587 -3Q587 -3 568 -2T523 -1T481 0Q443 0 409 -2T353 -7T332 -10ZM185 273H273Q293
273 321 275T366 278L287 540H280L185 273ZM176 712L167 713L153 735Q177 753 201 772T246 808T279 835T291 846H305Q305 846 317 836T349 809T394 773T443 735L429 713L420 712Q385 732 352 749T298 777Q277 767 245 750T176 712Z" />
<glyph unicode="&#xc3;" horiz-adv-x="584" d="M332 -10L329 -3L333 36Q368 39 387 43T414 54T422 74Q422 84 420 96T413 122L380 231Q362 232 330 232T276 232Q247 232 216 229T167 224L130 120Q121 93 121 81Q121 59 135 50T181 40H238L240 36L234 -7Q234 -7
213 -5T160 -2T95 0Q71 0 46 0T3 -2T-15 -3L-7 44Q21 47 38 63T71 121L266 632L329 649H337Q337 649 343 626T361 561T388 466T421 352T458 231T496 113Q508 76 528 61T592 42L594 38L587 -3Q587 -3 568 -2T523 -1T481 0Q443 0 409 -2T353 -7T332 -10ZM185 273H273Q293
273 321 275T366 278L287 540H280L185 273ZM157 699L135 720V725L211 804L227 808Q239 808 259 803T302 792T343 780T373 775Q382 775 392 782T413 797T429 813T436 820H442L464 799V794L388 715L372 711Q360 711 340 716T297 727T256 739T226 744Q217 744 206
737T186 722T170 706T163 699H157Z" />
<glyph unicode="&#xc4;" horiz-adv-x="584" d="M332 -10L329 -3L333 36Q368 39 387 43T414 54T422 74Q422 84 420 96T413 122L380 231Q362 232 330 232T276 232Q247 232 216 229T167 224L130 120Q121 93 121 81Q121 59 135 50T181 40H238L240 36L234 -7Q234 -7
213 -5T160 -2T95 0Q71 0 46 0T3 -2T-15 -3L-7 44Q21 47 38 63T71 121L266 632L329 649H337Q337 649 343 626T361 561T388 466T421 352T458 231T496 113Q508 76 528 61T592 42L594 38L587 -3Q587 -3 568 -2T523 -1T481 0Q443 0 409 -2T353 -7T332 -10ZM185 273H273Q293
273 321 275T366 278L287 540H280L185 273ZM376 715Q356 715 346 728T335 758Q335 778 349 793T385 808Q405 808 415 795T426 765Q426 745 412 730T376 715ZM210 715Q190 715 180 728T169 758Q169 778 183 793T219 808Q239 808 249 795T260 765Q260 745 246 730T210
715Z" />
<glyph unicode="&#xc5;" horiz-adv-x="584" d="M332 -10L329 -3L333 36Q368 39 387 43T414 54T422 74Q422 84 420 96T413 122L380 231Q362 232 330 232T276 232Q247 232 216 229T167 224L130 120Q121 93 121 81Q121 59 135 50T181 40H238L240 36L234 -7Q234 -7
213 -5T160 -2T95 0Q71 0 46 0T3 -2T-15 -3L-7 44Q21 47 38 63T71 121L266 632L329 649H337Q337 649 343 626T361 561T388 466T421 352T458 231T496 113Q508 76 528 61T592 42L594 38L587 -3Q587 -3 568 -2T523 -1T481 0Q443 0 409 -2T353 -7T332 -10ZM185 273H273Q293
273 321 275T366 278L287 540H280L185 273ZM293 674Q256 674 237 696T217 754Q217 790 240 814T301 838Q342 838 360 815T378 762Q378 728 356 701T293 674ZM300 712Q312 712 328 718T344 751Q344 772 331 785T293 799Q271 799 260 789T249 760Q249 734 266 723T300
712Z" />
<glyph unicode="&#xc6;" horiz-adv-x="810" d="M301 36Q360 41 379 50T398 87Q398 104 396 120T391 153L373 276L274 268L183 258L112 120Q103 103 100 93T96 74Q96 57 109 49T151 40H208L203 -7Q203 -7 191 -6T158 -4T114 -1T65 0Q54 0 38 -1T10 -3T-3 -4L-10
31Q-10 31 10 55T53 121L300 578Q298 587 292 590T275 594Q266 594 254 593T241 592L239 596L246 640Q246 640 257 640T290 639T340 638T405 637Q464 637 510 637T591 639T653 643T703 649L706 643Q706 643 702 621T692 561T683 477L635 473Q635 473 636 489T637
516Q637 549 628 564T585 583T480 587Q434 587 423 582T410 556L441 328L559 339L651 352L655 347L642 294L556 291L447 282L475 113Q481 75 500 60T559 45Q613 45 646 49T696 65T722 101T737 167L781 172L784 167Q784 167 779 143T768 80T757 -1L752 -7Q752 -7
725 -6T656 -4T567 -1T483 0H449Q411 0 377 -2T322 -7T301 -10L299 -3L301 36ZM294 315L367 321L337 539H328L210 310L294 315Z" />
<glyph unicode="&#xc7;" horiz-adv-x="626" d="M339 -12Q248 -12 181 26T77 133T40 297Q40 373 66 437T139 549T249 623T389 649Q420 649 451 646T507 637T547 629T563 625L567 619Q567 619 562 597T551 536T542 452L494 448Q494 448 495 464T497 497Q497 544
461 567T350 590Q283 590 234 558T157 468T130 330Q130 242 158 177T238 75T359 38Q427 38 468 76T529 196L577 200Q577 200 574 185T567 146T558 93T550 37L544 28Q544 28 518 18T445 -2T339 -12ZM314 -233Q299 -233 284 -229T257 -217T246 -197Q246 -187 255
-170T271 -141H280Q281 -169 296 -183T335 -198Q355 -198 369 -188T383 -160Q383 -148 370 -135T338 -109T298 -85L331 23H374L349 -50Q366 -61 385 -75T419 -104T434 -139Q434 -165 416 -186T370 -220T314 -233Z" />
<glyph unicode="&#xc8;" horiz-adv-x="591" d="M58 -10L64 36Q109 42 125 59T142 120L143 540Q143 572 136 583T106 594Q100 594 90 594T72 592L70 596L77 640Q94 640 118 639T168 638T216 637Q296 637 350 638T444 642T516 649L519 643Q514 619 509 590T501 531T496
477L448 473Q449 482 449 495T450 516Q450 540 446 554T427 576T381 585T297 587Q265 587 250 585T232 575T227 548L217 315L213 105Q213 78 218 66T239 49T292 45Q351 45 387 49T442 65T470 101T485 167L529 172L532 167Q525 136 518 88T505 -1L500 -7Q440 -5
381 -4T273 -1T197 0Q166 0 127 -2T58 -10ZM203 294L212 354Q219 354 239 354T282 354T322 353Q339 353 374 356T444 364L448 359L434 300Q406 301 365 302T294 303Q275 303 250 301T203 294ZM367 703Q328 718 291 731T225 755T178 771T161 777L157 787L173 835L182
841Q182 841 199 831T246 805T310 770T381 732L375 708L367 703Z" />
<glyph unicode="&#xc9;" horiz-adv-x="591" d="M58 -10L64 36Q109 42 125 59T142 120L143 540Q143 572 136 583T106 594Q100 594 90 594T72 592L70 596L77 640Q94 640 118 639T168 638T216 637Q296 637 350 638T444 642T516 649L519 643Q514 619 509 590T501 531T496
477L448 473Q449 482 449 495T450 516Q450 540 446 554T427 576T381 585T297 587Q265 587 250 585T232 575T227 548L217 315L213 105Q213 78 218 66T239 49T292 45Q351 45 387 49T442 65T470 101T485 167L529 172L532 167Q525 136 518 88T505 -1L500 -7Q440 -5
381 -4T273 -1T197 0Q166 0 127 -2T58 -10ZM203 294L212 354Q219 354 239 354T282 354T322 353Q339 353 374 356T444 364L448 359L434 300Q406 301 365 302T294 303Q275 303 250 301T203 294ZM260 703L252 708L246 732Q281 750 316 769T381 805T427 831T445 841L454
835L470 787L466 777Q466 777 449 771T403 755T336 732T260 703Z" />
<glyph unicode="&#xca;" horiz-adv-x="591" d="M58 -10L64 36Q109 42 125 59T142 120L143 540Q143 572 136 583T106 594Q100 594 90 594T72 592L70 596L77 640Q94 640 118 639T168 638T216 637Q296 637 350 638T444 642T516 649L519 643Q514 619 509 590T501 531T496
477L448 473Q449 482 449 495T450 516Q450 540 446 554T427 576T381 585T297 587Q265 587 250 585T232 575T227 548L217 315L213 105Q213 78 218 66T239 49T292 45Q351 45 387 49T442 65T470 101T485 167L529 172L532 167Q525 136 518 88T505 -1L500 -7Q440 -5
381 -4T273 -1T197 0Q166 0 127 -2T58 -10ZM203 294L212 354Q219 354 239 354T282 354T322 353Q339 353 374 356T444 364L448 359L434 300Q406 301 365 302T294 303Q275 303 250 301T203 294ZM188 712L179 713L165 735Q189 753 213 772T258 808T291 835T303 846H317Q317
846 329 836T361 809T406 773T455 735L441 713L432 712Q397 732 364 749T310 777Q289 767 257 750T188 712Z" />
<glyph unicode="&#xcb;" horiz-adv-x="591" d="M58 -10L64 36Q109 42 125 59T142 120L143 540Q143 572 136 583T106 594Q100 594 90 594T72 592L70 596L77 640Q94 640 118 639T168 638T216 637Q296 637 350 638T444 642T516 649L519 643Q514 619 509 590T501 531T496
477L448 473Q449 482 449 495T450 516Q450 540 446 554T427 576T381 585T297 587Q265 587 250 585T232 575T227 548L217 315L213 105Q213 78 218 66T239 49T292 45Q351 45 387 49T442 65T470 101T485 167L529 172L532 167Q525 136 518 88T505 -1L500 -7Q440 -5
381 -4T273 -1T197 0Q166 0 127 -2T58 -10ZM203 294L212 354Q219 354 239 354T282 354T322 353Q339 353 374 356T444 364L448 359L434 300Q406 301 365 302T294 303Q275 303 250 301T203 294ZM388 715Q368 715 358 728T347 758Q347 778 361 793T397 808Q417 808
427 795T438 765Q438 745 424 730T388 715ZM222 715Q202 715 192 728T181 758Q181 778 195 793T231 808Q251 808 261 795T272 765Q272 745 258 730T222 715Z" />
<glyph unicode="&#xcc;" horiz-adv-x="361" d="M56 -12L62 34Q109 43 125 60T142 120L143 540Q143 572 136 583T106 594Q99 594 87 594T64 592L62 596L69 640Q95 639 130 638T188 637Q209 637 241 639T303 646L299 601Q258 596 244 585T227 544Q224 489 222 427T217
305T214 194T213 112Q213 72 222 58T257 44Q271 44 286 45T310 47L312 43L303 -3Q285 -2 261 -2T213 -1T172 0Q150 0 118 -3T56 -12ZM485 949Q446 964 409 977T343 1001T296 1017T279 1023L275 1033L291 1081L300 1087Q300 1087 317 1077T364 1051T428 1016T499
978L493 954L485 949Z" />
<glyph unicode="&#xcd;" horiz-adv-x="361" d="M56 -12L62 34Q109 43 125 60T142 120L143 540Q143 572 136 583T106 594Q99 594 87 594T64 592L62 596L69 640Q95 639 130 638T188 637Q209 637 241 639T303 646L299 601Q258 596 244 585T227 544Q224 489 222 427T217
305T214 194T213 112Q213 72 222 58T257 44Q271 44 286 45T310 47L312 43L303 -3Q285 -2 261 -2T213 -1T172 0Q150 0 118 -3T56 -12ZM359 703L351 708L345 732Q380 750 415 769T480 805T526 831T544 841L553 835L569 787L565 777Q565 777 548 771T502 755T435 732T359
703Z" />
<glyph unicode="&#xce;" horiz-adv-x="361" d="M56 -12L62 34Q109 43 125 60T142 120L143 540Q143 572 136 583T106 594Q99 594 87 594T64 592L62 596L69 640Q95 639 130 638T188 637Q209 637 241 639T303 646L299 601Q258 596 244 585T227 544Q224 489 222 427T217
305T214 194T213 112Q213 72 222 58T257 44Q271 44 286 45T310 47L312 43L303 -3Q285 -2 261 -2T213 -1T172 0Q150 0 118 -3T56 -12ZM315 712L306 713L292 735Q316 753 340 772T385 808T418 835T430 846H444Q444 846 456 836T488 809T533 773T582 735L568 713L559
712Q524 732 491 749T437 777Q416 767 384 750T315 712Z" />
<glyph unicode="&#xcf;" horiz-adv-x="361" d="M56 -12L62 34Q109 43 125 60T142 120L143 540Q143 572 136 583T106 594Q99 594 87 594T64 592L62 596L69 640Q95 639 130 638T188 637Q209 637 241 639T303 646L299 601Q258 596 244 585T227 544Q224 489 222 427T217
305T214 194T213 112Q213 72 222 58T257 44Q271 44 286 45T310 47L312 43L303 -3Q285 -2 261 -2T213 -1T172 0Q150 0 118 -3T56 -12ZM515 715Q495 715 485 728T474 758Q474 778 488 793T524 808Q544 808 554 795T565 765Q565 745 551 730T515 715ZM349 715Q329
715 319 728T308 758Q308 778 322 793T358 808Q378 808 388 795T399 765Q399 745 385 730T349 715Z" />
<glyph unicode="&#xd0;" horiz-adv-x="713" d="M324 -12Q324 -12 309 -10T271 -6T224 -2T180 0Q155 0 129 -3T84 -9T65 -12L71 34Q106 41 122 51T144 85T149 157V304H16L9 311L16 343H149L150 540Q150 572 143 583T113 594Q104 594 92 593T79 592L77 596L84 640Q84
640 95 640T122 639T157 638T189 637Q206 637 231 637T282 639T324 640T341 641Q437 641 511 603T628 497T670 342Q670 267 644 203T570 91T460 15T324 -12ZM227 343H397L402 336L396 304H226L221 131Q221 95 231 75T269 47T347 39Q455 39 517 113T579 318Q579
406 544 467T440 560T272 592Q251 592 244 588T236 570L227 343Z" />
<glyph unicode="&#xd1;" horiz-adv-x="719" d="M570 -40Q497 74 430 174T311 349T229 468T198 511H193L188 84Q188 62 195 53T219 44Q224 44 236 44T259 45T270 45L272 41L263 -4Q263 -4 253 -4T226 -2T192 -1T157 0Q137 0 116 -2T79 -6T64 -8L69 38Q100 42 115
56T131 101L144 538Q144 569 126 582T57 600L54 605L62 642Q62 642 77 641T113 639T148 637Q165 637 180 638T205 640T215 641Q265 564 313 491T405 355T481 245T532 172T551 145H556V550Q556 572 548 582T523 593Q510 593 498 593T485 592L483 596L492 641Q492
641 502 641T527 639T558 638T587 637Q608 637 631 639T670 643T686 645L681 599Q647 595 631 580T613 536L599 -26L570 -40ZM230 699L208 720V725L284 804L300 808Q312 808 332 803T375 792T416 780T446 775Q455 775 465 782T486 797T502 813T509 820H515L537
799V794L461 715L445 711Q433 711 413 716T370 727T329 739T299 744Q290 744 279 737T259 722T243 706T236 699H230Z" />
<glyph unicode="&#xd2;" horiz-adv-x="692" d="M317 -12Q235 -12 173 27T75 136T40 297Q40 371 65 435T135 547T240 622T369 649Q453 649 516 610T616 502T652 341Q652 266 627 202T556 90T449 15T317 -12ZM348 39Q412 39 460 72T535 163T563 299Q563 385 534
450T454 552T335 589Q273 589 226 556T153 465T126 329Q126 244 154 179T232 76T348 39ZM399 703Q360 718 323 731T257 755T210 771T193 777L189 787L205 835L214 841Q214 841 231 831T278 805T342 770T413 732L407 708L399 703Z" />
<glyph unicode="&#xd3;" horiz-adv-x="692" d="M317 -12Q235 -12 173 27T75 136T40 297Q40 371 65 435T135 547T240 622T369 649Q453 649 516 610T616 502T652 341Q652 266 627 202T556 90T449 15T317 -12ZM348 39Q412 39 460 72T535 163T563 299Q563 385 534
450T454 552T335 589Q273 589 226 556T153 465T126 329Q126 244 154 179T232 76T348 39ZM292 703L284 708L278 732Q313 750 348 769T413 805T459 831T477 841L486 835L502 787L498 777Q498 777 481 771T435 755T368 732T292 703Z" />
<glyph unicode="&#xd4;" horiz-adv-x="692" d="M317 -12Q235 -12 173 27T75 136T40 297Q40 371 65 435T135 547T240 622T369 649Q453 649 516 610T616 502T652 341Q652 266 627 202T556 90T449 15T317 -12ZM348 39Q412 39 460 72T535 163T563 299Q563 385 534
450T454 552T335 589Q273 589 226 556T153 465T126 329Q126 244 154 179T232 76T348 39ZM220 712L211 713L197 735Q221 753 245 772T290 808T323 835T335 846H349Q349 846 361 836T393 809T438 773T487 735L473 713L464 712Q429 732 396 749T342 777Q321 767 289
750T220 712Z" />
<glyph unicode="&#xd5;" horiz-adv-x="692" d="M317 -12Q235 -12 173 27T75 136T40 297Q40 371 65 435T135 547T240 622T369 649Q453 649 516 610T616 502T652 341Q652 266 627 202T556 90T449 15T317 -12ZM348 39Q412 39 460 72T535 163T563 299Q563 385 534
450T454 552T335 589Q273 589 226 556T153 465T126 329Q126 244 154 179T232 76T348 39ZM201 699L179 720V725L255 804L271 808Q283 808 303 803T346 792T387 780T417 775Q426 775 436 782T457 797T473 813T480 820H486L508 799V794L432 715L416 711Q404 711 384
716T341 727T300 739T270 744Q261 744 250 737T230 722T214 706T207 699H201Z" />
<glyph unicode="&#xd6;" horiz-adv-x="692" d="M317 -12Q235 -12 173 27T75 136T40 297Q40 371 65 435T135 547T240 622T369 649Q453 649 516 610T616 502T652 341Q652 266 627 202T556 90T449 15T317 -12ZM348 39Q412 39 460 72T535 163T563 299Q563 385 534
450T454 552T335 589Q273 589 226 556T153 465T126 329Q126 244 154 179T232 76T348 39ZM420 715Q400 715 390 728T379 758Q379 778 393 793T429 808Q449 808 459 795T470 765Q470 745 456 730T420 715ZM254 715Q234 715 224 728T213 758Q213 778 227 793T263 808Q283
808 293 795T304 765Q304 745 290 730T254 715Z" />
<glyph unicode="&#xd7;" horiz-adv-x="506" d="M113 80L102 83L75 125Q75 125 96 146T150 198T213 261Q189 284 164 309T117 356T82 391T68 405L70 416L113 442Q113 442 126 429T160 395T205 349T253 301Q274 323 298 348T343 397T378 434T392 449L403 446L434
404L292 261Q314 240 339 217T386 173T423 139T437 126L434 114L392 84L253 222Q229 198 205 174T160 128T126 93T113 80Z" />
<glyph unicode="&#xd8;" horiz-adv-x="692" d="M218 56L186 70L456 586L489 572L218 56ZM136 -98L109 -92L107 -82L186 70L218 56L136 -98ZM489 572L456 586L520 708L549 701L552 689L489 572ZM317 -12Q235 -12 173 27T75 136T40 297Q40 371 65 435T135 547T240
622T369 649Q453 649 516 610T616 502T652 341Q652 266 627 202T556 90T449 15T317 -12ZM348 39Q412 39 460 72T535 163T563 299Q563 385 534 450T454 552T335 589Q273 589 226 556T153 465T126 329Q126 244 154 179T232 76T348 39Z" />
<glyph unicode="&#xd9;" horiz-adv-x="681" d="M327 -12Q222 -12 165 45T108 209V540Q108 572 101 583T71 594Q62 594 50 593T37 592L35 596L42 640Q42 640 62 639T109 638T155 637Q171 637 189 638T224 641T250 644T260 646L256 601Q219 596 207 585T192 544L184
250Q184 151 227 98T351 45Q433 45 476 88T519 214Q519 235 519 274T517 358T515 445T514 513T513 540Q511 575 505 584T476 594Q467 594 450 593T433 592L431 596L438 640Q438 640 450 640T480 639T517 638T551 637Q573 637 595 639T632 643T648 646L644 601Q601
595 588 585T575 544V208Q575 103 510 46T327 -12ZM404 703Q365 718 328 731T262 755T215 771T198 777L194 787L210 835L219 841Q219 841 236 831T283 805T347 770T418 732L412 708L404 703Z" />
<glyph unicode="&#xda;" horiz-adv-x="681" d="M327 -12Q222 -12 165 45T108 209V540Q108 572 101 583T71 594Q62 594 50 593T37 592L35 596L42 640Q42 640 62 639T109 638T155 637Q171 637 189 638T224 641T250 644T260 646L256 601Q219 596 207 585T192 544L184
250Q184 151 227 98T351 45Q433 45 476 88T519 214Q519 235 519 274T517 358T515 445T514 513T513 540Q511 575 505 584T476 594Q467 594 450 593T433 592L431 596L438 640Q438 640 450 640T480 639T517 638T551 637Q573 637 595 639T632 643T648 646L644 601Q601
595 588 585T575 544V208Q575 103 510 46T327 -12ZM297 703L289 708L283 732Q318 750 353 769T418 805T464 831T482 841L491 835L507 787L503 777Q503 777 486 771T440 755T373 732T297 703Z" />
<glyph unicode="&#xdb;" horiz-adv-x="681" d="M327 -12Q222 -12 165 45T108 209V540Q108 572 101 583T71 594Q62 594 50 593T37 592L35 596L42 640Q42 640 62 639T109 638T155 637Q171 637 189 638T224 641T250 644T260 646L256 601Q219 596 207 585T192 544L184
250Q184 151 227 98T351 45Q433 45 476 88T519 214Q519 235 519 274T517 358T515 445T514 513T513 540Q511 575 505 584T476 594Q467 594 450 593T433 592L431 596L438 640Q438 640 450 640T480 639T517 638T551 637Q573 637 595 639T632 643T648 646L644 601Q601
595 588 585T575 544V208Q575 103 510 46T327 -12ZM225 712L216 713L202 735Q226 753 250 772T295 808T328 835T340 846H354Q354 846 366 836T398 809T443 773T492 735L478 713L469 712Q434 732 401 749T347 777Q326 767 294 750T225 712Z" />
<glyph unicode="&#xdc;" horiz-adv-x="681" d="M327 -12Q222 -12 165 45T108 209V540Q108 572 101 583T71 594Q62 594 50 593T37 592L35 596L42 640Q42 640 62 639T109 638T155 637Q171 637 189 638T224 641T250 644T260 646L256 601Q219 596 207 585T192 544L184
250Q184 151 227 98T351 45Q433 45 476 88T519 214Q519 235 519 274T517 358T515 445T514 513T513 540Q511 575 505 584T476 594Q467 594 450 593T433 592L431 596L438 640Q438 640 450 640T480 639T517 638T551 637Q573 637 595 639T632 643T648 646L644 601Q601
595 588 585T575 544V208Q575 103 510 46T327 -12ZM425 715Q405 715 395 728T384 758Q384 778 398 793T434 808Q454 808 464 795T475 765Q475 745 461 730T425 715ZM259 715Q239 715 229 728T218 758Q218 778 232 793T268 808Q288 808 298 795T309 765Q309 745
295 730T259 715Z" />
<glyph unicode="&#xdd;" horiz-adv-x="538" d="M144 -12L150 34Q186 41 202 52T223 84T228 142V186Q228 215 223 239T199 299L109 482Q89 523 76 547T42 582T-17 597L-19 601L-13 640Q-13 640 -3 640T24 639T60 638T97 637Q118 637 142 638T189 641T225 644T239
645L242 638L239 603Q194 599 179 592T163 567Q163 558 174 530T202 464T235 392T263 333T275 309H280L394 521Q410 550 410 571Q410 584 395 591T347 601L345 605L351 644Q351 644 371 643T417 639T462 637Q482 637 503 638T539 640T554 641L558 634L552 597Q518
591 499 579T464 541T421 467L321 291Q311 273 307 253T301 200T299 112Q298 74 307 59T343 44Q358 44 375 45T392 47L394 43L385 -3Q385 -3 372 -3T338 -2T297 -1T258 0Q239 0 219 -2T182 -6T155 -10T144 -12ZM235 703L227 708L221 732Q256 750 291 769T356 805T402
831T420 841L429 835L445 787L441 777Q441 777 424 771T378 755T311 732T235 703Z" />
<glyph unicode="&#xde;" horiz-adv-x="543" d="M56 -12L62 34Q109 43 125 60T142 120L143 540Q143 572 136 583T106 594Q95 594 80 593T64 592L62 596L69 640Q69 640 90 639T139 638T188 637Q205 637 225 638T262 641T291 644T303 646L299 601Q257 596 243 585T227
544Q226 528 225 520T225 503H307Q411 503 466 461T521 340Q521 289 488 245T401 175T284 148H213V112Q213 72 222 58T257 44Q275 44 292 45T310 47L312 43L303 -3Q303 -3 290 -3T255 -2T212 -1T172 0Q153 0 133 -2T95 -6T67 -10T56 -12ZM316 192Q437 207 437 321Q437
390 392 422T249 454Q232 454 228 453T222 446Q220 389 218 345T216 268T214 209Q232 203 263 198T316 192Z" />
<glyph unicode="&#xdf;" horiz-adv-x="591" d="M404 -12Q355 -12 322 3T288 41Q288 51 294 67T309 101T326 127H340Q340 82 365 57T435 32Q465 32 488 57T511 115Q511 147 489 170T434 213T368 256T313 308T291 378Q291 406 304 428T336 470T376 508T409 546T422
588Q422 632 388 657T295 683Q257 683 232 663T195 603T182 498L176 98Q174 43 215 43Q237 43 249 43T262 44L264 40L257 -2Q257 -2 246 -2T219 -1T186 -1T158 0Q137 0 117 0T81 -2T56 -3T46 -4L51 35Q86 40 97 55T108 108V364Q107 387 94 395T45 405L41 411L48
445L108 456Q108 591 169 666T339 742Q379 742 413 725T469 680T491 620Q491 586 479 561T447 515T409 476T378 439T365 397Q365 371 387 351T441 311T506 269T560 218T582 147Q582 105 558 69T493 10T404 -12Z" />
<glyph unicode="&#xe0;" horiz-adv-x="466" d="M372 -12Q332 -12 310 8T283 69L279 70Q255 46 234 29T196 2T169 -8Q132 -8 103 8T58 52T41 116Q41 145 55 167T94 196L284 248L285 292Q285 342 262 370T197 398Q169 398 138 385T77 348L72 351L60 394Q86 409 118
425T179 453T223 464Q267 464 298 449T345 405T362 335Q362 322 360 293T353 229T347 160T344 105Q344 83 355 71T385 59Q402 59 419 67T445 84L459 68Q451 55 438 39T408 8T372 -12ZM186 60Q205 60 230 73T277 108L282 210L146 169Q117 160 117 127Q117 99 136
80T186 60ZM261 521Q219 559 181 590T118 641T93 660L92 671L130 712L140 714Q140 714 153 699T188 658T236 602T290 542L270 523L261 521Z" />
<glyph unicode="&#xe1;" horiz-adv-x="466" d="M372 -12Q332 -12 310 8T283 69L279 70Q255 46 234 29T196 2T169 -8Q132 -8 103 8T58 52T41 116Q41 145 55 167T94 196L284 248L285 292Q285 342 262 370T197 398Q169 398 138 385T77 348L72 351L60 394Q86 409 118
425T179 453T223 464Q267 464 298 449T345 405T362 335Q362 322 360 293T353 229T347 160T344 105Q344 83 355 71T385 59Q402 59 419 67T445 84L459 68Q451 55 438 39T408 8T372 -12ZM186 60Q205 60 230 73T277 108L282 210L146 169Q117 160 117 127Q117 99 136
80T186 60ZM178 521L169 523L149 542Q176 571 202 601T251 657T286 699T299 715L309 713L347 672L346 661Q346 661 322 642T259 591T178 521Z" />
<glyph unicode="&#xe2;" horiz-adv-x="466" d="M372 -12Q332 -12 310 8T283 69L279 70Q255 46 234 29T196 2T169 -8Q132 -8 103 8T58 52T41 116Q41 145 55 167T94 196L284 248L285 292Q285 342 262 370T197 398Q169 398 138 385T77 348L72 351L60 394Q86 409 118
425T179 453T223 464Q267 464 298 449T345 405T362 335Q362 322 360 293T353 229T347 160T344 105Q344 83 355 71T385 59Q402 59 419 67T445 84L459 68Q451 55 438 39T408 8T372 -12ZM186 60Q205 60 230 73T277 108L282 210L146 169Q117 160 117 127Q117 99 136
80T186 60ZM96 527L87 528L73 550Q97 576 121 602T166 652T199 689T211 703H225Q225 703 237 689T269 652T314 603T363 550L349 528L340 527Q305 558 272 583T218 624Q197 608 165 584T96 527Z" />
<glyph unicode="&#xe3;" horiz-adv-x="466" d="M372 -12Q332 -12 310 8T283 69L279 70Q255 46 234 29T196 2T169 -8Q132 -8 103 8T58 52T41 116Q41 145 55 167T94 196L284 248L285 292Q285 342 262 370T197 398Q169 398 138 385T77 348L72 351L60 394Q86 409 118
425T179 453T223 464Q267 464 298 449T345 405T362 335Q362 322 360 293T353 229T347 160T344 105Q344 83 355 71T385 59Q402 59 419 67T445 84L459 68Q451 55 438 39T408 8T372 -12ZM186 60Q205 60 230 73T277 108L282 210L146 169Q117 160 117 127Q117 99 136
80T186 60ZM75 547L53 568V573L129 662L145 666Q157 666 177 661T220 650T261 638T291 633Q300 633 310 641T331 660T347 679T354 688H360L382 667V662L306 573L290 569Q278 569 258 574T215 585T174 597T144 602Q135 602 124 594T104 575T88 556T81 547H75Z" />
<glyph unicode="&#xe4;" horiz-adv-x="466" d="M372 -12Q332 -12 310 8T283 69L279 70Q255 46 234 29T196 2T169 -8Q132 -8 103 8T58 52T41 116Q41 145 55 167T94 196L284 248L285 292Q285 342 262 370T197 398Q169 398 138 385T77 348L72 351L60 394Q86 409 118
425T179 453T223 464Q267 464 298 449T345 405T362 335Q362 322 360 293T353 229T347 160T344 105Q344 83 355 71T385 59Q402 59 419 67T445 84L459 68Q451 55 438 39T408 8T372 -12ZM186 60Q205 60 230 73T277 108L282 210L146 169Q117 160 117 127Q117 99 136
80T186 60ZM295 546Q275 546 265 559T254 589Q254 609 268 624T304 639Q324 639 334 626T345 596Q345 576 331 561T295 546ZM129 546Q109 546 99 559T88 589Q88 609 102 624T138 639Q158 639 168 626T179 596Q179 576 165 561T129 546Z" />
<glyph unicode="&#xe5;" horiz-adv-x="466" d="M372 -12Q332 -12 310 8T283 69L279 70Q255 46 234 29T196 2T169 -8Q132 -8 103 8T58 52T41 116Q41 145 55 167T94 196L284 248L285 292Q285 342 262 370T197 398Q169 398 138 385T77 348L72 351L60 394Q86 409 118
425T179 453T223 464Q267 464 298 449T345 405T362 335Q362 322 360 293T353 229T347 160T344 105Q344 83 355 71T385 59Q402 59 419 67T445 84L459 68Q451 55 438 39T408 8T372 -12ZM186 60Q205 60 230 73T277 108L282 210L146 169Q117 160 117 127Q117 99 136
80T186 60ZM213 544Q178 544 158 565T137 624Q137 662 160 685T221 708Q256 708 277 688T298 632Q298 594 274 569T213 544ZM220 582Q241 582 252 592T264 621Q264 644 250 656T213 669Q169 669 169 630Q169 610 183 596T220 582Z" />
<glyph unicode="&#xe6;" horiz-adv-x="653" d="M480 -12Q417 -12 369 16T297 95Q258 54 221 27T158 -8Q121 -8 92 8T47 52T30 116Q30 145 44 166T83 195L274 247L275 297Q275 347 253 374T189 401Q157 401 129 388T83 362T66 348L61 351L49 394Q49 394 61 401T94
418T136 439T179 457T212 464Q310 464 336 384Q365 422 405 443T488 464Q552 464 588 427T625 322Q625 315 624 309T623 303L614 289L344 225Q349 148 390 100T493 52Q523 52 551 61T598 78T616 87L622 85L633 56Q633 56 618 46T580 22T530 -1T480 -12ZM170 57Q191
57 220 74T285 125Q273 163 273 210L135 169Q119 165 111 153T103 127Q103 99 123 78T170 57ZM343 262L518 312Q538 318 538 330Q538 363 518 385T465 408Q410 408 377 370T343 269V262Z" />
<glyph unicode="&#xe7;" horiz-adv-x="424" d="M245 -12Q182 -12 135 15T62 92T36 209Q36 281 66 338T149 430T267 464Q299 464 325 460T368 450T384 445L387 438Q387 438 383 420T373 371T366 300L325 297V328Q325 365 303 387T243 410Q182 410 149 367T116 243Q116
156 152 106T252 55Q280 55 306 63T348 80T365 88L371 86L382 55Q382 55 368 45T332 22T287 -2T245 -12ZM206 -233Q191 -233 176 -229T149 -217T138 -197Q138 -187 147 -170T163 -141H172Q173 -169 188 -183T227 -198Q247 -198 261 -188T275 -160Q275 -148 262
-135T230 -109T190 -85L223 23H266L241 -50Q258 -61 277 -75T311 -104T326 -139Q326 -165 308 -186T262 -220T206 -233Z" />
<glyph unicode="&#xe8;" horiz-adv-x="448" d="M246 -12Q183 -12 136 16T63 93T36 209Q36 260 53 306T102 387T172 443T257 464Q406 464 406 319Q406 306 404 292T400 270L387 258H111Q110 169 143 118T238 58T382 87L388 85L399 56Q379 42 352 26T296 -1T246
-12ZM115 295L296 304Q311 306 316 311T321 331Q321 371 300 392T238 413Q192 413 158 382T115 295ZM285 521Q243 559 205 590T142 641T117 660L116 671L154 712L164 714Q164 714 177 699T212 658T260 602T314 542L294 523L285 521Z" />
<glyph unicode="&#xe9;" horiz-adv-x="448" d="M246 -12Q183 -12 136 16T63 93T36 209Q36 260 53 306T102 387T172 443T257 464Q406 464 406 319Q406 306 404 292T400 270L387 258H111Q110 169 143 118T238 58T382 87L388 85L399 56Q379 42 352 26T296 -1T246
-12ZM115 295L296 304Q311 306 316 311T321 331Q321 371 300 392T238 413Q192 413 158 382T115 295ZM202 521L193 523L173 542Q200 571 226 601T275 657T310 699T323 715L333 713L371 672L370 661Q370 661 346 642T283 591T202 521Z" />
<glyph unicode="&#xea;" horiz-adv-x="448" d="M246 -12Q183 -12 136 16T63 93T36 209Q36 260 53 306T102 387T172 443T257 464Q406 464 406 319Q406 306 404 292T400 270L387 258H111Q110 169 143 118T238 58T382 87L388 85L399 56Q379 42 352 26T296 -1T246
-12ZM115 295L296 304Q311 306 316 311T321 331Q321 371 300 392T238 413Q192 413 158 382T115 295ZM120 527L111 528L97 550Q121 576 145 602T190 652T223 689T235 703H249Q249 703 261 689T293 652T338 603T387 550L373 528L364 527Q329 558 296 583T242 624Q221
608 189 584T120 527Z" />
<glyph unicode="&#xeb;" horiz-adv-x="448" d="M246 -12Q183 -12 136 16T63 93T36 209Q36 260 53 306T102 387T172 443T257 464Q406 464 406 319Q406 306 404 292T400 270L387 258H111Q110 169 143 118T238 58T382 87L388 85L399 56Q379 42 352 26T296 -1T246
-12ZM115 295L296 304Q311 306 316 311T321 331Q321 371 300 392T238 413Q192 413 158 382T115 295ZM319 546Q299 546 289 559T278 589Q278 609 292 624T328 639Q348 639 358 626T369 596Q369 576 355 561T319 546ZM153 546Q133 546 123 559T112 589Q112 609 126
624T162 639Q182 639 192 626T203 596Q203 576 189 561T153 546Z" />
<glyph unicode="&#xec;" horiz-adv-x="282" d="M44 -12L48 29Q78 37 91 52T104 94V348Q104 376 95 389T67 402Q59 402 51 400T42 398L46 435Q71 439 96 444T143 453T177 461T190 464L195 452Q191 442 187 408T179 324T174 216T172 98Q172 69 180 56T207 42Q216
42 229 43T242 44L244 40L236 -3Q236 -3 228 -3T206 -2T177 -1T147 0Q126 0 102 -3T61 -9T44 -12ZM431 521Q389 559 351 590T288 641T263 660L262 671L300 712L310 714Q310 714 323 699T358 658T406 602T460 542L440 523L431 521Z" />
<glyph unicode="&#xed;" horiz-adv-x="282" d="M44 -12L48 29Q78 37 91 52T104 94V348Q104 376 95 389T67 402Q59 402 51 400T42 398L46 435Q71 439 96 444T143 453T177 461T190 464L195 452Q191 442 187 408T179 324T174 216T172 98Q172 69 180 56T207 42Q216
42 229 43T242 44L244 40L236 -3Q236 -3 228 -3T206 -2T177 -1T147 0Q126 0 102 -3T61 -9T44 -12ZM323 521L314 523L294 542Q321 571 347 601T396 657T431 699T444 715L454 713L492 672L491 661Q491 661 467 642T404 591T323 521Z" />
<glyph unicode="&#xee;" horiz-adv-x="282" d="M44 -12L48 29Q78 37 91 52T104 94V348Q104 376 95 389T67 402Q59 402 51 400T42 398L46 435Q71 439 96 444T143 453T177 461T190 464L195 452Q191 442 187 408T179 324T174 216T172 98Q172 69 180 56T207 42Q216
42 229 43T242 44L244 40L236 -3Q236 -3 228 -3T206 -2T177 -1T147 0Q126 0 102 -3T61 -9T44 -12ZM277 782L268 783L254 805Q278 831 302 857T347 907T380 944T392 958H406Q406 958 418 944T450 907T495 858T544 805L530 783L521 782Q486 813 453 838T399 879Q378
863 346 839T277 782Z" />
<glyph unicode="&#xef;" horiz-adv-x="282" d="M44 -12L48 29Q78 37 91 52T104 94V348Q104 376 95 389T67 402Q59 402 51 400T42 398L46 435Q71 439 96 444T143 453T177 461T190 464L195 452Q191 442 187 408T179 324T174 216T172 98Q172 69 180 56T207 42Q216
42 229 43T242 44L244 40L236 -3Q236 -3 228 -3T206 -2T177 -1T147 0Q126 0 102 -3T61 -9T44 -12ZM461 792Q441 792 431 805T420 835Q420 855 434 870T470 885Q490 885 500 872T511 842Q511 822 497 807T461 792ZM315 792Q295 792 285 805T274 835Q274 855 288
870T324 885Q344 885 354 872T365 842Q365 822 351 807T315 792Z" />
<glyph unicode="&#xf0;" horiz-adv-x="508" d="M243 -12Q184 -12 139 15T69 92T43 206Q43 274 73 330T154 419T266 453Q282 453 299 447T328 434T340 427L342 429Q325 469 302 505T247 572L114 508L105 511L101 541L219 599Q185 629 144 655T53 704L68 737L78
741Q189 693 272 625L410 692L418 687L422 658L301 599Q381 525 423 434T465 242Q465 171 436 113T356 22T243 -12ZM271 37Q323 37 353 82T383 206Q383 288 365 358Q353 369 325 384T250 399Q211 399 183 380T139 324T123 235Q123 177 142 132T194 62T271 37Z"
/>
<glyph unicode="&#xf1;" horiz-adv-x="562" d="M327 29Q357 37 370 52T383 94L387 292Q387 342 366 369T304 396Q280 396 255 386T211 364T181 344Q180 318 179 283T176 210T173 143T172 98Q172 67 180 55T208 42Q217 42 230 43T243 44L245 40L236 -3Q236 -3 221
-2T185 -1T145 0Q124 0 101 -1T62 -4T46 -6L51 35Q80 40 92 53T104 94V338Q104 372 93 385T55 399H44L41 403L44 436Q79 442 111 448T163 460T184 465L190 457Q190 457 186 437T179 391L181 388Q190 394 209 406T251 432T295 454T328 464Q391 464 428 429T465 335Q465
322 463 292T458 225T453 154T451 98Q451 69 459 56T486 42Q495 42 508 43T521 44L523 40L515 -3Q515 -3 507 -3T485 -2T456 -1T426 0Q410 0 393 -2T359 -6T333 -10T323 -12L327 29ZM145 547L123 568V573L199 662L215 666Q227 666 247 661T290 650T331 638T361
633Q370 633 380 641T401 660T417 679T424 688H430L452 667V662L376 573L360 569Q348 569 328 574T285 585T244 597T214 602Q205 602 194 594T174 575T158 556T151 547H145Z" />
<glyph unicode="&#xf2;" horiz-adv-x="498" d="M230 -12Q173 -12 129 16T61 94T36 210Q36 282 66 339T150 430T268 464Q325 464 369 436T437 358T462 242Q462 171 432 113T349 22T230 -12ZM258 37Q314 37 347 82T380 206Q380 266 362 312T312 384T238 410Q182
410 149 364T116 239Q116 179 134 134T184 63T258 37ZM294 521Q252 559 214 590T151 641T126 660L125 671L163 712L173 714Q173 714 186 699T221 658T269 602T323 542L303 523L294 521Z" />
<glyph unicode="&#xf3;" horiz-adv-x="498" d="M230 -12Q173 -12 129 16T61 94T36 210Q36 282 66 339T150 430T268 464Q325 464 369 436T437 358T462 242Q462 171 432 113T349 22T230 -12ZM258 37Q314 37 347 82T380 206Q380 266 362 312T312 384T238 410Q182
410 149 364T116 239Q116 179 134 134T184 63T258 37ZM211 521L202 523L182 542Q209 571 235 601T284 657T319 699T332 715L342 713L380 672L379 661Q379 661 355 642T292 591T211 521Z" />
<glyph unicode="&#xf4;" horiz-adv-x="498" d="M230 -12Q173 -12 129 16T61 94T36 210Q36 282 66 339T150 430T268 464Q325 464 369 436T437 358T462 242Q462 171 432 113T349 22T230 -12ZM258 37Q314 37 347 82T380 206Q380 266 362 312T312 384T238 410Q182
410 149 364T116 239Q116 179 134 134T184 63T258 37ZM129 527L120 528L106 550Q130 576 154 602T199 652T232 689T244 703H258Q258 703 270 689T302 652T347 603T396 550L382 528L373 527Q338 558 305 583T251 624Q230 608 198 584T129 527Z" />
<glyph unicode="&#xf5;" horiz-adv-x="498" d="M230 -12Q173 -12 129 16T61 94T36 210Q36 282 66 339T150 430T268 464Q325 464 369 436T437 358T462 242Q462 171 432 113T349 22T230 -12ZM258 37Q314 37 347 82T380 206Q380 266 362 312T312 384T238 410Q182
410 149 364T116 239Q116 179 134 134T184 63T258 37ZM108 547L86 568V573L162 662L178 666Q190 666 210 661T253 650T294 638T324 633Q333 633 343 641T364 660T380 679T387 688H393L415 667V662L339 573L323 569Q311 569 291 574T248 585T207 597T177 602Q168
602 157 594T137 575T121 556T114 547H108Z" />
<glyph unicode="&#xf6;" horiz-adv-x="498" d="M230 -12Q173 -12 129 16T61 94T36 210Q36 282 66 339T150 430T268 464Q325 464 369 436T437 358T462 242Q462 171 432 113T349 22T230 -12ZM258 37Q314 37 347 82T380 206Q380 266 362 312T312 384T238 410Q182
410 149 364T116 239Q116 179 134 134T184 63T258 37ZM328 546Q308 546 298 559T287 589Q287 609 301 624T337 639Q357 639 367 626T378 596Q378 576 364 561T328 546ZM162 546Q142 546 132 559T121 589Q121 609 135 624T171 639Q191 639 201 626T212 596Q212 576
198 561T162 546Z" />
<glyph unicode="&#xf7;" horiz-adv-x="506" d="M24 234L18 243L29 292Q29 292 53 292T115 292T194 291T268 291Q298 291 334 292T405 294T460 296T482 297L488 287L480 236L253 235Q219 235 180 235T105 235T47 234T24 234ZM245 29Q217 29 203 46T189 86Q189 112
206 130T251 148Q279 148 293 131T308 91Q308 66 291 48T245 29ZM245 378Q217 378 203 395T189 435Q189 461 206 479T251 497Q279 497 293 480T308 440Q308 415 291 397T245 378Z" />
<glyph unicode="&#xf8;" horiz-adv-x="498" d="M176 56L144 70L324 417L357 403L176 56ZM94 -98L67 -92L65 -82L144 70L176 56L94 -98ZM357 403L324 417L388 539L417 532L420 520L357 403ZM230 -12Q173 -12 129 16T61 94T36 210Q36 282 66 339T150 430T268 464Q325
464 369 436T437 358T462 242Q462 171 432 113T349 22T230 -12ZM258 37Q314 37 347 82T380 206Q380 266 362 312T312 384T238 410Q182 410 149 364T116 239Q116 179 134 134T184 63T258 37Z" />
<glyph unicode="&#xf9;" horiz-adv-x="541" d="M90 347Q90 373 81 387T53 401Q45 401 37 399T28 397L32 434Q55 438 80 443T126 453T161 461T175 464L181 452Q176 439 172 408T163 334T157 246T155 155Q155 57 235 57Q270 57 300 76T356 114V346Q356 376 345 388T306
400Q302 400 292 400T282 399L286 435Q313 439 340 444T389 453T426 461T440 464L446 452Q440 437 435 385T427 259T424 105Q424 83 435 71T465 59Q481 59 494 65T516 78T525 84L539 68Q539 68 531 56T509 28T480 0T452 -12Q371 -12 363 69L358 71Q310 34 272 11T219
-12Q155 -12 121 18T86 104L90 347ZM299 521Q257 559 219 590T156 641T131 660L130 671L168 712L178 714Q178 714 191 699T226 658T274 602T328 542L308 523L299 521Z" />
<glyph unicode="&#xfa;" horiz-adv-x="541" d="M90 347Q90 373 81 387T53 401Q45 401 37 399T28 397L32 434Q55 438 80 443T126 453T161 461T175 464L181 452Q176 439 172 408T163 334T157 246T155 155Q155 57 235 57Q270 57 300 76T356 114V346Q356 376 345 388T306
400Q302 400 292 400T282 399L286 435Q313 439 340 444T389 453T426 461T440 464L446 452Q440 437 435 385T427 259T424 105Q424 83 435 71T465 59Q481 59 494 65T516 78T525 84L539 68Q539 68 531 56T509 28T480 0T452 -12Q371 -12 363 69L358 71Q310 34 272 11T219
-12Q155 -12 121 18T86 104L90 347ZM216 521L207 523L187 542Q214 571 240 601T289 657T324 699T337 715L347 713L385 672L384 661Q384 661 360 642T297 591T216 521Z" />
<glyph unicode="&#xfb;" horiz-adv-x="541" d="M90 347Q90 373 81 387T53 401Q45 401 37 399T28 397L32 434Q55 438 80 443T126 453T161 461T175 464L181 452Q176 439 172 408T163 334T157 246T155 155Q155 57 235 57Q270 57 300 76T356 114V346Q356 376 345 388T306
400Q302 400 292 400T282 399L286 435Q313 439 340 444T389 453T426 461T440 464L446 452Q440 437 435 385T427 259T424 105Q424 83 435 71T465 59Q481 59 494 65T516 78T525 84L539 68Q539 68 531 56T509 28T480 0T452 -12Q371 -12 363 69L358 71Q310 34 272 11T219
-12Q155 -12 121 18T86 104L90 347ZM134 527L125 528L111 550Q135 576 159 602T204 652T237 689T249 703H263Q263 703 275 689T307 652T352 603T401 550L387 528L378 527Q343 558 310 583T256 624Q235 608 203 584T134 527Z" />
<glyph unicode="&#xfc;" horiz-adv-x="541" d="M90 347Q90 373 81 387T53 401Q45 401 37 399T28 397L32 434Q55 438 80 443T126 453T161 461T175 464L181 452Q176 439 172 408T163 334T157 246T155 155Q155 57 235 57Q270 57 300 76T356 114V346Q356 376 345 388T306
400Q302 400 292 400T282 399L286 435Q313 439 340 444T389 453T426 461T440 464L446 452Q440 437 435 385T427 259T424 105Q424 83 435 71T465 59Q481 59 494 65T516 78T525 84L539 68Q539 68 531 56T509 28T480 0T452 -12Q371 -12 363 69L358 71Q310 34 272 11T219
-12Q155 -12 121 18T86 104L90 347ZM333 546Q313 546 303 559T292 589Q292 609 306 624T342 639Q362 639 372 626T383 596Q383 576 369 561T333 546ZM167 546Q147 546 137 559T126 589Q126 609 140 624T176 639Q196 639 206 626T217 596Q217 576 203 561T167 546Z"
/>
<glyph unicode="&#xfd;" horiz-adv-x="446" d="M36 -241Q32 -241 25 -234T11 -218T-2 -199T-8 -184L-3 -177Q55 -177 103 -130T185 0Q176 29 164 66T139 143T112 224T85 302T61 368Q51 394 35 404T-7 416L-9 420L-3 453Q-3 453 13 453T49 453T80 452Q102 452 123
453T162 455T189 458T200 459L202 454L196 423Q162 422 151 417T139 397Q139 388 145 363T162 303T183 233T204 165T220 114T227 94H231Q248 135 268 183T305 277T334 354T346 393Q346 407 337 413T308 419H262L260 423L266 456Q266 456 281 455T320 453T368 452Q386
452 405 452T439 453T453 453L446 416Q424 412 413 400T390 359L263 55Q226 -34 198 -92T146 -183T95 -229T36 -241ZM190 521L181 523L161 542Q188 571 214 601T263 657T298 699T311 715L321 713L359 672L358 661Q358 661 334 642T271 591T190 521Z" />
<glyph unicode="&#xfe;" horiz-adv-x="510" d="M21 -237L26 -198Q55 -194 66 -184T80 -153T83 -97L85 94V633Q85 653 80 663T61 677T23 676L27 713Q51 716 78 721T130 731T175 742L181 729Q177 722 173 679T165 562T158 394Q189 416 214 431T255 455T279 464Q336
464 379 437T447 362T472 250Q472 178 439 119T349 24T223 -12L152 -8V-111Q152 -147 157 -164T179 -186T234 -189L236 -192L228 -230Q218 -230 208 -230T187 -230T165 -230Q122 -230 84 -232T21 -237ZM251 43Q318 43 356 88T395 213Q395 264 378 305T330 371T263
396Q244 396 215 381T156 342L153 64L251 43Z" />
<glyph unicode="&#xff;" horiz-adv-x="446" d="M36 -241Q32 -241 25 -234T11 -218T-2 -199T-8 -184L-3 -177Q55 -177 103 -130T185 0Q176 29 164 66T139 143T112 224T85 302T61 368Q51 394 35 404T-7 416L-9 420L-3 453Q-3 453 13 453T49 453T80 452Q102 452 123
453T162 455T189 458T200 459L202 454L196 423Q162 422 151 417T139 397Q139 388 145 363T162 303T183 233T204 165T220 114T227 94H231Q248 135 268 183T305 277T334 354T346 393Q346 407 337 413T308 419H262L260 423L266 456Q266 456 281 455T320 453T368 452Q386
452 405 452T439 453T453 453L446 416Q424 412 413 400T390 359L263 55Q226 -34 198 -92T146 -183T95 -229T36 -241ZM307 546Q287 546 277 559T266 589Q266 609 280 624T316 639Q336 639 346 626T357 596Q357 576 343 561T307 546ZM141 546Q121 546 111 559T100
589Q100 609 114 624T150 639Q170 639 180 626T191 596Q191 576 177 561T141 546Z" />
<glyph unicode="&#x2013;" horiz-adv-x="608" d="M74 224L68 233L79 282L318 281L532 287L538 277L530 226Q482 226 426 226T312 226T206 225T121 224T74 224Z" />
<glyph unicode="&#x2014;" horiz-adv-x="918" d="M0 224L-6 233L5 282Q5 282 36 282T120 282T234 282T359 281T474 281Q522 281 579 281T695 283T802 285T882 286T918 287L924 277L916 226Q836 226 743 226T554 226T368 225T202 225T74 224T0 224Z" />
<glyph unicode="&#x2018;" horiz-adv-x="176" d="M92 414Q68 414 51 438T34 497Q34 532 59 572T129 651L150 640L152 630Q129 608 115 582T101 532Q101 510 115 492T154 466L155 452Q123 414 92 414Z" />
<glyph unicode="&#x2019;" horiz-adv-x="176" d="M47 414L26 425L24 435Q47 457 61 484T75 533Q75 556 61 574T22 599L21 613Q53 651 84 651Q108 651 125 627T142 568Q142 534 117 493T47 414Z" />
<glyph unicode="&#x201a;" horiz-adv-x="238" d="M81 -157L63 -142V-132Q97 -109 119 -76T142 -11Q142 10 133 28T110 59L112 73Q122 81 138 90T170 99Q191 99 206 79T221 21Q221 -17 199 -51T144 -112T81 -157Z" />
<glyph unicode="&#x201c;" horiz-adv-x="331" d="M247 414Q223 414 206 438T189 497Q189 532 214 572T284 651L305 640L307 630Q284 608 270 582T256 532Q256 510 270 492T309 466L310 452Q278 414 247 414ZM92 414Q68 414 51 438T34 497Q34 532 59 572T129 651L150
640L152 630Q129 608 115 582T101 532Q101 510 115 492T154 466L155 452Q123 414 92 414Z" />
<glyph unicode="&#x201d;" horiz-adv-x="331" d="M202 414L181 425L179 435Q202 457 216 484T230 533Q230 556 216 574T177 599L176 613Q208 651 239 651Q263 651 280 627T297 568Q297 534 272 493T202 414ZM47 414L26 425L24 435Q47 457 61 484T75 533Q75 556
61 574T22 599L21 613Q53 651 84 651Q108 651 125 627T142 568Q142 534 117 493T47 414Z" />
<glyph unicode="&#x201e;" horiz-adv-x="397" d="M204 -127L186 -112V-102Q216 -83 237 -56T258 -3Q258 17 247 33T218 59L220 73Q230 81 246 90T278 99Q301 99 316 80T332 28Q332 -8 312 -37T262 -89T204 -127ZM49 -127L31 -112V-102Q61 -83 82 -56T103 -3Q103
17 92 33T63 59L65 73Q75 81 91 90T123 99Q146 99 161 80T177 28Q177 -8 157 -37T107 -89T49 -127Z" />
<glyph unicode="&#x2022;" horiz-adv-x="340" d="M168 117Q117 117 89 149T60 225Q60 272 91 305T171 338Q221 338 251 306T281 229Q281 183 250 150T168 117Z" />
<glyph unicode="&#x2039;" horiz-adv-x="261" d="M196 46Q168 75 138 104T82 158T40 197T24 212V227Q24 227 40 242T81 282T137 338T196 400L218 385L219 375Q192 338 166 301T112 226Q139 187 165 149T219 71L218 61L196 46Z" />
<glyph unicode="&#x203a;" horiz-adv-x="261" d="M65 46L43 61L42 71Q69 109 95 146T149 220Q122 259 96 297T42 375L43 385L65 400Q94 371 124 342T179 288T221 249T237 234V219Q237 219 221 204T180 164T124 108T65 46Z" />
</font>
</defs>
</svg>
